<?xml version="1.0" standalone="no"?>
<!DOCTYPE svg PUBLIC "-//W3C//DTD SVG 1.1//EN" "http://www.w3.org/Graphics/SVG/1.1/DTD/svg11.dtd" >
<svg>
<metadata>
Created by FontForge 20090622 at Wed May 24 09:15:53 2017
 By deploy user
2015 Iconian Fonts - www.iconian.com
</metadata>
<defs>
<font id="FlashRogersStraight" horiz-adv-x="209" >
  <font-face 
    font-family="Flash Rogers Straight"
    font-weight="400"
    font-stretch="normal"
    units-per-em="1000"
    panose-1="0 0 0 0 0 0 0 0 0 0"
    ascent="800"
    descent="-200"
    x-height="633"
    cap-height="709"
    bbox="-47 -170 1189 805"
    underline-thickness="50"
    underline-position="-75"
    unicode-range="U+0020-U+2122"
  />
<missing-glyph horiz-adv-x="500" 
 />
    <glyph glyph-name=".notdef" horiz-adv-x="500" 
 />
    <glyph glyph-name=".null" horiz-adv-x="0" 
 />
    <glyph glyph-name="nonmarkingreturn" horiz-adv-x="500" 
 />
    <glyph glyph-name="space" unicode=" " horiz-adv-x="286" 
 />
    <glyph glyph-name="space" unicode="&#xa0;" horiz-adv-x="286" 
 />
    <glyph glyph-name="FL0021h" unicode="!" 
d="M173 633v-422h-138v422h138zM35 0v132h138v-132h-138z" />
    <glyph glyph-name="FL0022h" unicode="&#x22;" horiz-adv-x="384" 
d="M210 415v218h139v-136q-1 -9 -15 -22.5t-34.5 -26.5t-44.5 -22.5t-45 -10.5zM35 415v218h139v-136q-1 -9 -15 -22.5t-34.5 -26.5t-44.5 -22.5t-45 -10.5z" />
    <glyph glyph-name="FL0023h" unicode="#" horiz-adv-x="592" 
d="M557 479h-92v154h-138v-154h-63v154h-138v-154h-91v-132h91v-62h-91v-132h89q-2 -34 -7.5 -70.5t-15.5 -59.5l163 -123v253h61q-2 -34 -7.5 -70.5t-15.5 -59.5l163 -123v253h92v132h-92v62h92v132zM327 347v-62h-63v62h63z" />
    <glyph glyph-name="FL0024h" unicode="$" horiz-adv-x="412" 
d="M219 132h-184v-132h102v-112h138v112h32q5 0 13.5 1t13.5 7q17 8 28.5 23.5t11.5 38.5q0 17 -2.5 34t-8.5 35l-168 362h182v132h-102v110h-138v-110h-38q-24 0 -42 -21t-18 -48q0 -20 1 -38t7 -31z" />
    <glyph glyph-name="FL0025h" unicode="%" horiz-adv-x="648" 
d="M375 633h138l-242 -633h-137zM497 202q-14 -3 -18.5 -17.5t-4.5 -26.5l1 -3v-10q0 -5 1 -10q2 -9 7 -17t13 -8h2q8 0 12.5 11.5t7.5 22.5l1 2q2 5 2 8v6q0 3 -0.5 6t-1.5 8q-2 10 -7 18t-14 10h-1zM508 0h-20q-42 0 -66.5 28.5t-33.5 70.5q-3 14 -4.5 29t-2.5 30v2
q0 26 5 54t17.5 50.5t33 37t52.5 14.5h19q22 0 39 -8.5t29 -22.5t19.5 -32.5t12.5 -38.5q2 -14 3.5 -27t1.5 -27v-6q0 -30 -6.5 -57.5t-19 -49t-32.5 -34.5t-47 -13zM151 518q-14 -3 -18.5 -17.5t-4.5 -26.5v-9q0 -5 2 -12q2 -10 7 -18.5t13 -8.5h2q8 0 12.5 11.5t7.5 22.5
l1 2q1 5 1.5 9t0.5 6q0 3 -0.5 5.5l-1.5 7.5q-2 10 -7 18t-14 10h-1zM162 316h-20q-42 0 -66.5 28.5t-33.5 70.5q-3 14 -5 29t-2 30v2q0 26 5 54t17.5 50.5t33 37t52.5 14.5h19q22 0 38.5 -8.5t28.5 -22.5t20 -32.5t12 -38.5q6 -27 6 -54v-6q0 -30 -6.5 -57.5t-19 -49
t-32.5 -34.5t-47 -13z" />
    <glyph glyph-name="FL0026h" unicode="&#x26;" horiz-adv-x="504" 
d="M189 446q0 -7 0.5 -13t1.5 -11q6 -27 25 -40h254v-132h-41q2 -8 5 -17t5 -19q3 -17 5 -35t2 -35v-10q0 -14 -2.5 -29t-8.5 -30q-8 -20 -19 -34t-22.5 -23t-22 -13.5t-16.5 -4.5h-230q-7 0 -17.5 4.5t-22 13.5t-22 23t-18.5 34q-6 13 -9 27q-1 7 -2 13t-1 11t1 8
q0 133 100 182q-76 38 -94 123q-6 25 -6 50v10q0 23 11 59q8 19 19 33.5t22 23.5t21.5 13.5t17.5 4.5h216q12 0 25.5 -9.5t26.5 -24.5t23 -34t14 -38q1 -5 1.5 -10t0.5 -10v-11q-1 -10 -1 -25t-2 -19h-159v32l-4 8t-8 11h-50q-5 -5 -7.5 -11t-4.5 -8q-5 -20 -7 -38zM208 130
h64q5 5 7.5 11.5t4.5 8.5q7 17 7 37q0 11 -0.5 20.5t-2.5 17.5q-4 17 -13.5 27.5t-32.5 17.5l-2 1l-2 -1q-32 -11 -40.5 -29.5t-8.5 -53.5q1 -5 1 -10q0 -4 1 -8l2 -10z" />
    <glyph glyph-name="FL0027h" unicode="'" horiz-adv-x="207" 
d="M34 415v218h139v-136q-1 -9 -15 -22.5t-34.5 -26.5t-44.5 -22.5t-45 -10.5z" />
    <glyph glyph-name="FL0028h" unicode="(" horiz-adv-x="355" 
d="M216 -36q-33 0 -60 16.5t-48.5 44.5t-37 64.5t-23.5 77.5q-11 52 -13 109v76q0 60 13 116.5t40 101t67.5 71.5t95.5 27h70v-132h-62q-28 0 -44 -29t-24.5 -67.5t-11.5 -76.5t-3 -56q0 -19 2 -43.5t7 -50.5q9 -41 26.5 -74.5t46.5 -41.5h63v-133h-104z" />
    <glyph glyph-name="FL0029h" unicode=")" horiz-adv-x="355" 
d="M35 -36v133h63q24 6 40 30.5t25.5 56.5t14 65.5t4.5 57.5q0 9 -1 23.5t-3.5 32.5t-5.5 37.5t-7 38.5q-8 40 -24.5 68.5t-43.5 28.5h-62v132h70q43 0 77 -16.5t59.5 -45t43 -67t26.5 -81.5q5 -23 7.5 -47t2.5 -48v-90q0 -53 -12.5 -107.5t-35.5 -99.5t-57 -73.5t-77 -28.5
h-104z" />
    <glyph glyph-name="asterisk" unicode="*" horiz-adv-x="276" 
d="M161 489l-25 44l-21 -43l-67 51l38 31l-51 13l24 69l44 -21l-6 48h83l-9 -49l46 21l24 -70l-49 -11l35 -33z" />
    <glyph glyph-name="FL002Bh" unicode="+" horiz-adv-x="436" 
d="M284 499v-117h117v-132h-117v-117h-132v117h-117v132h117v117h132z" />
    <glyph glyph-name="FL002Ch" unicode="," 
d="M35 -76v208h139v-126q-1 -9 -15 -22.5t-34.5 -26.5t-44.5 -22.5t-45 -10.5z" />
    <glyph glyph-name="FL002Dh" unicode="-" horiz-adv-x="323" 
d="M35 382h253v-132h-253v132z" />
    <glyph glyph-name="minus" unicode="." 
d="M35 0v132h139v-132h-139z" />
    <glyph glyph-name="FL002Fh" unicode="/" horiz-adv-x="449" 
d="M35 0h137l242 633h-138z" />
    <glyph glyph-name="FL0040h" unicode="0" horiz-adv-x="531" 
d="M287 0h-39q-42 0 -75.5 16.5t-59 44.5t-42.5 66t-26 81q-6 26 -8.5 53t-2.5 55v5q0 52 10 107.5t35 101t66 74.5t104 29h38q43 0 76.5 -16.5t57.5 -44.5t40 -64.5t24 -76.5q6 -27 8.5 -55t3.5 -55v-5q0 -60 -12 -116.5t-37.5 -101t-65.5 -71.5t-95 -27zM265 501
q-23 -6 -40 -23.5t-28 -41t-16.5 -50.5t-5.5 -51v-9q0 -14 2 -38.5t8 -50.5q4 -20 10.5 -38.5t15.5 -33.5t21.5 -24t29.5 -9h8q25 0 41.5 23t27 54.5t15 63.5t4.5 50v3q-1 15 -2.5 31.5t-5.5 34.5q-8 37 -26 69t-52 40h-7z" />
    <glyph glyph-name="FL0031h" unicode="1" horiz-adv-x="283" 
d="M35 501h75v-290q0 -15 -1 -40t-4 -52t-8 -53t-12 -43l163 -123v733h-213v-132z" />
    <glyph glyph-name="FL0032h" unicode="2" horiz-adv-x="412" 
d="M193 132l172 363q6 13 6.5 31t1.5 38q0 12 -1 15q-5 23 -22 38.5t-37 15.5h-278v-132h182l-168 -362q-11 -35 -11 -69v-70h339v132h-184z" />
    <glyph glyph-name="FL0033h" unicode="3" horiz-adv-x="425" 
d="M157 364v-95l2 2q29 -8 49.5 -23t25.5 -41l2 -13v-7q0 -20 -7 -37q-2 -2 -4.5 -8.5t-7.5 -11.5h-182v-130h265q6 0 16.5 4.5t22 13.5t22.5 23t19 34q6 15 8.5 30t2.5 29q0 29 -6 59q-18 85 -94 123q100 50 100 183q0 14 -5 36l-2 11q-2 9 -4 12q-8 19 -19 33.5t-22 23.5
t-21.5 13.5t-17.5 4.5h-265v-130h182q5 -5 8 -11l4 -8l5 -18q1 -5 1.5 -10t0.5 -10q-1 -35 -23 -53.5t-56 -28.5z" />
    <glyph glyph-name="FL0034h" unicode="4" horiz-adv-x="449" 
d="M35 633v-383h241v-48q0 -17 -1 -41t-4 -49.5t-8 -49t-12 -39.5l163 -123v733h-138v-251h-104v251h-137z" />
    <glyph glyph-name="FL0035h" unicode="5" horiz-adv-x="412" 
d="M219 132l-180 377v124h338v-132h-182l168 -362q2 -2 4 -11l2 -10q5 -25 5 -48t-11.5 -38.5t-28.5 -23.5q-5 -6 -13.5 -7t-13.5 -1h-272v132h184z" />
    <glyph glyph-name="FL0036h" unicode="6" horiz-adv-x="469" 
d="M433 382h-252q9 39 30 73.5t57 45.5h165v132h-217q-45 0 -79 -28.5t-57 -73.5t-34.5 -100t-11.5 -107v-19q0 -24 2.5 -48t7.5 -47q9 -44 26.5 -82t43 -66.5t59.5 -45t77 -16.5h183v382zM295 250v-121h-30q-17 0 -30 11t-23 28t-17.5 39t-11.5 43h112z" />
    <glyph glyph-name="FL0037h" unicode="7" horiz-adv-x="409" 
d="M193 0l181 511v122h-339v-132h186l-170 -501h142z" />
    <glyph glyph-name="FL0038h" unicode="8" horiz-adv-x="506" 
d="M125 633q-7 0 -17.5 -4.5t-21.5 -13.5t-22 -23.5t-19 -33.5q-11 -36 -11 -59v-10q0 -25 6 -50q18 -85 94 -123q-100 -49 -100 -182q-1 -3 -1 -8t1 -11t2 -13q3 -14 9 -27q8 -20 18.5 -34t22 -23t22 -13.5t17.5 -4.5h256q6 0 16.5 4.5t22 13.5t22.5 23t19 34q6 15 8.5 30
t2.5 29q0 29 -6 59q-18 85 -94 123q100 50 100 183q0 14 -5 36q-1 5 -3 11l-4 12q-8 19 -19 33.5t-22 23.5t-21 13.5t-17 4.5h-256zM193 159l-2 10q-1 4 -1 8q0 5 -1 10q1 35 14.5 54t47.5 29l2 1l2 -1q26 -8 40.5 -20.5t19.5 -34.5q1 -5 1.5 -10t0.5 -10v-8q0 -20 -7 -37
q-2 -2 -4.5 -8.5t-7.5 -11.5h-90zM255 362l-4 2q-51 13 -60 54q-1 5 -1.5 10t-0.5 10v8q2 18 7 38q2 2 4.5 8t7.5 11h90q5 -5 8 -11l4 -8l5 -18q1 -5 1.5 -10t0.5 -10q-1 -35 -15 -54.5t-47 -29.5z" />
    <glyph glyph-name="FL003Ah" unicode="9" horiz-adv-x="468" 
d="M35 251h252q-9 -39 -30 -73.5t-57 -45.5h-165v-132h217q44 0 78 28.5t57 73.5t35 99.5t12 107.5v8q0 28 -3 54.5t-8 52.5q-9 43 -26.5 81t-43 66.5t-59.5 45t-76 16.5h-183v-382zM173 383v121h30q17 0 30 -11t23 -28t17 -39t12 -43h-112z" />
    <glyph glyph-name="FL003Bh" unicode=":" 
d="M35 0v132h139v-132h-139zM35 315v132h139v-132h-139z" />
    <glyph glyph-name="FL003Dh" unicode=";" 
d="M35 315v132h139v-132h-139zM35 -76v208h139v-126q-1 -9 -15 -22.5t-34.5 -26.5t-44.5 -22.5t-45 -10.5z" />
    <glyph glyph-name="FL003Ch" unicode="&#x3c;" horiz-adv-x="327" 
d="M156 0l-122 317l121 316h138l-121 -316l121 -317h-137z" />
    <glyph glyph-name="FL003Fh" unicode="=" horiz-adv-x="395" 
d="M35 479h325v-132h-325v132zM35 285h325v-132h-325v132z" />
    <glyph glyph-name="FL003Eh" unicode="&#x3e;" horiz-adv-x="326" 
d="M171 0h-137l120 317l-120 316h138l120 -316z" />
    <glyph glyph-name="FL0F4Eh" unicode="?" horiz-adv-x="425" 
d="M136 363q-14 -5 -20.5 -13.5l-15.5 -20.5v-118h138v72q72 20 112.5 69t40.5 137v10q0 14 -5 36l-2 11q-2 9 -4 12q-8 19 -19 33.5t-22 23.5t-21.5 13.5t-17.5 4.5h-265v-130h182q5 -5 8 -11l4 -8l5 -18q1 -5 1.5 -10t0.5 -10q0 -18 -9 -31t-23.5 -23t-32.5 -17t-35 -12z
M100 0h138v132h-138v-132z" />
    <glyph glyph-name="FL0184h" unicode="@" horiz-adv-x="700" 
d="M347 154h136q43 0 77 18.5t57.5 51.5t35.5 77.5t12 96.5v6q0 49 -9 90q-17 81 -68 127.5t-139 46.5h-198q-55 0 -95.5 -27t-67.5 -71.5t-40 -101t-13 -116.5v-76q0 -28 3.5 -55t9.5 -54q8 -41 23.5 -77.5t37 -64.5t48.5 -44.5t60 -16.5h414v133h-373q-29 8 -46.5 42
t-26.5 76q-5 26 -7.5 50t-2.5 42t3 56q2 27 7.5 57t15.5 56t24 43t34 17h182q36 0 54 -23.5t24 -52.5q3 -10 4 -18.5l2 -16.5v-19q0 -23 -3.5 -44t-11 -39t-20.5 -32t-32 -22v201h-110q-32 0 -52.5 -14.5t-33 -37t-17.5 -50.5t-5 -54v-2q0 -14 1 -27t4 -26q10 -45 34.5 -75
t67.5 -30zM356 356h9v-92h-10q-8 0 -13 9t-7 19q-2 5 -2 10v10q0 12 4.5 26.5t18.5 17.5z" />
    <glyph glyph-name="FL0041h" unicode="A" horiz-adv-x="470" 
d="M35 -112v484q0 43 9.5 93.5t29 97.5t50 84.5t73.5 54.5q5 3 15 5t12 2h211v-709h-153v246h-95l-3 -10q1 -13 2 -33t3 -42.5t4.5 -46t7.5 -44.5q7 -31 13 -44zM277 563q-21 -10 -36.5 -28t-26.5 -40t-17.5 -47t-9.5 -50l1 -4h94v160z" />
    <glyph glyph-name="FL0042h" unicode="B" horiz-adv-x="478" 
d="M344 0h-309v709h309q16 0 43 -20.5t45 -63.5l4 -13.5l4 -13.5l1 -3q3 -17 3 -30v-6q0 -75 -26.5 -126t-83.5 -79q84 -41 103 -135q5 -23 7 -69q0 -16 -2 -32.5t-10 -33.5q-18 -45 -44.5 -64.5t-43.5 -19.5zM187 301v-155h66q5 5 8 12.5t5 9.5q3 11 4.5 21.5t2.5 19.5
q0 6 -0.5 12t-1.5 11q-7 29 -28.5 45.5t-53.5 26.5zM189 405q37 11 60.5 33t23.5 62q0 11 -3 25l-4 17l-4.5 9t-8.5 12h-66v-155z" />
    <glyph glyph-name="FL0043h" unicode="C" horiz-adv-x="460" 
d="M425 561h-134q-27 -8 -46.5 -29.5t-32 -49.5t-18.5 -59t-6 -58q0 -14 2.5 -39t8.5 -54q5 -23 12.5 -45t18.5 -39.5t25.5 -28.5t32.5 -11h137v-148h-154q-47 0 -84 18.5t-64.5 50t-47 74.5t-29.5 91q-12 58 -12 109v20q0 58 13 119.5t38.5 112t62.5 82.5t86 32h191v-148z
" />
    <glyph glyph-name="FL0044h" unicode="D" horiz-adv-x="508" 
d="M273 0h-238v709h201q46 0 83.5 -18.5t65.5 -50t47 -73.5t29 -90q13 -61 13 -122v-9q0 -59 -13.5 -120t-39.5 -111.5t-63 -82.5t-85 -32zM187 149h29q27 7 46.5 28t32.5 49t19 59.5t6 58.5q0 30 -11 82q-5 24 -13 48t-19.5 43.5t-27 31.5t-34.5 12h-28v-412z" />
    <glyph glyph-name="FL0045h" unicode="E" horiz-adv-x="461" 
d="M35 0v709h391v-148h-238v-133h169v-148h-169v-132h238v-148h-391z" />
    <glyph glyph-name="FL0046h" unicode="F" horiz-adv-x="461" 
d="M188 225v55h169v148h-169v133h238v148h-391v-821l179 138q-1 2 -1.5 5.5t-2.5 8.5l-3 17q-4 19 -7.5 42t-6 45.5t-4 43.5t-1.5 37z" />
    <glyph glyph-name="FL0047h" unicode="G" horiz-adv-x="508" 
d="M473 428v-192q0 -14 1 -34t2.5 -43t4.5 -47t8 -45q2 -13 5 -23t6 -18l-179 -138v112h-50q-47 0 -84 18.5t-64.5 50t-47 74.5t-29.5 91q-12 58 -12 109v20q0 58 13 119.5t38.5 112t62.5 82.5t86 32h239v-148h-182q-26 -8 -45.5 -29.5t-32 -49.5t-19 -59t-6.5 -58
q0 -14 2.5 -37.5t8.5 -50.5q5 -24 13 -47.5t19 -42.5t25 -31t32 -12h33v284h152z" />
    <glyph glyph-name="FL0048h" unicode="H" horiz-adv-x="487" 
d="M452 709v-709h-151v280h-114v-44q0 -14 1 -34t2.5 -43t4.5 -47t8 -45q2 -13 5 -23t6 -18l-179 -138v821h152v-281h114v281h151z" />
    <glyph glyph-name="FL0049h" unicode="I" horiz-adv-x="221" 
d="M187 709v-473q0 -14 1 -34t2.5 -43t4.5 -47t8 -45q2 -13 5 -23t6 -18l-179 -138v821h152z" />
    <glyph glyph-name="FL004Ah" unicode="J" horiz-adv-x="470" 
d="M194 146l-6 10v125h-153v-281h203q28 0 62 31.5t64 80.5t50.5 108.5t20.5 116.5v372h-152v-398q-3 -24 -9.5 -49t-17 -47.5t-26 -40.5t-36.5 -28z" />
    <glyph glyph-name="FL004Bh" unicode="K" horiz-adv-x="477" 
d="M441 709h-154v-71q0 -18 -1.5 -51.5t-8 -69.5t-21 -68t-39.5 -46l-28 -7l-2 -2v315h-152v-821l179 138q-3 8 -6 18t-5 23q-5 21 -8 45t-4.5 47t-2.5 43t-1 34v91h3l10 -15l105 -160.5t124 -151.5h160q-75 82 -130.5 164t-108.5 176q23 25 40.5 58t29 71.5t17 80.5t5.5 84
z" />
    <glyph glyph-name="FL004Ch" unicode="L" horiz-adv-x="461" 
d="M35 0v709h153v-561h238v-148h-391z" />
    <glyph glyph-name="FL004Dh" unicode="M" horiz-adv-x="588" 
d="M35 0v709h145l114 -167l114 167h145v-709h-152v492l-103 -149h-9l-101 149v-492h-153z" />
    <glyph glyph-name="FL004Eh" unicode="N" horiz-adv-x="499" 
d="M35 0v709h151l126 -170v170h152v-709h-152v342l-124 169v-511h-153z" />
    <glyph glyph-name="FL004Fh" unicode="O" horiz-adv-x="577" 
d="M312 0h-43q-47 0 -83.5 18t-64 49.5t-46 74t-28.5 90.5q-6 29 -9.5 57t-3.5 55v20q0 58 11.5 119t38.5 111.5t72.5 82.5t113.5 32h42q48 0 84.5 -18.5t63 -49.5t44 -72t26.5 -86q7 -31 10 -62t3 -61v-10q0 -66 -13 -129t-41 -112t-72 -79t-105 -30zM288 561
q-27 -7 -46 -28t-31 -49.5t-17.5 -60t-5.5 -58.5q0 -15 2.5 -41t8.5 -55q5 -23 12.5 -44.5t18 -38.5t24 -27.5t31.5 -10.5h8q27 0 45.5 26t30 61t16 71t4.5 56v3q0 38 -8 75q-8 42 -28.5 76.5t-56.5 44.5h-8z" />
    <glyph glyph-name="FL0050h" unicode="P" horiz-adv-x="477" 
d="M193 314h-6v-78q0 -14 1 -34t2.5 -43t4.5 -47t8 -45q2 -13 5 -23t6 -18l-179 -138v821h309q16 0 43 -20.5t45 -63.5l4 -13.5l4 -13.5l1 -3q3 -17 3 -30v-6q0 -111 -64 -177t-187 -68zM187 394l2 -2q37 11 60.5 39.5t23.5 68.5q0 11 -3 25l-4 17l-4.5 9t-8.5 12h-66v-169z
" />
    <glyph glyph-name="FL0051h" unicode="Q" horiz-adv-x="577" 
d="M312 0h-43q-47 0 -83.5 18t-64 49.5t-46 74t-28.5 90.5q-6 29 -9.5 57t-3.5 55v20q0 58 11.5 119t38.5 111.5t72.5 82.5t113.5 32h42q48 0 84.5 -18.5t63 -49.5t44 -72t26.5 -86q7 -31 10 -62t3 -61v-6q-1 -66 -11.5 -125t-37.5 -110q29 -42 60.5 -82.5l67.5 -83.5h-159
l-30.5 33.5l-30.5 35.5q-37 -22 -90 -22zM209 327h159q3 -11 6 -17t10 -12q4 21 4.5 38.5t0.5 28.5q0 38 -8 75q-8 42 -28.5 76.5t-56.5 44.5h-8q-27 -7 -46 -28t-31 -49.5t-17.5 -60t-5.5 -58.5q0 -15 2.5 -41t8.5 -55q5 -23 12.5 -44.5t18 -38.5t24 -27.5t31.5 -10.5h8
q12 0 18 3l-57 92t-45 84z" />
    <glyph glyph-name="FL0052h" unicode="R" horiz-adv-x="479" 
d="M190 314h-3v-78q0 -14 1 -34t2.5 -43t4.5 -47t8 -45q2 -13 5 -23t6 -18l-179 -138v821h309q16 0 43 -20.5t45 -63.5l4 -13.5l4 -13.5l1 -3q3 -17 3 -30v-10q0 -71 -27.5 -117.5t-78.5 -75.5l58 -98t57.5 -91t62.5 -87t73 -86h-160q-73 75 -129.5 152t-109.5 162zM187 394
l2 -2q37 11 60.5 39.5t23.5 68.5q0 11 -3 25l-4 17l-4.5 9t-8.5 12h-66v-169z" />
    <glyph glyph-name="FL0053h" unicode="S" horiz-adv-x="446" 
d="M237 148l-189 406q-2 5 -3.5 9.5t-2.5 8.5q-2 13 -2.5 28t-0.5 32v2q0 15 5.5 28.5t14.5 24t21 16.5t25 6h306v-148h-200l185 -405l4 -13.5t4 -14.5q4 -20 4 -50v-2q0 -15 -6.5 -29t-17 -24.5t-23.5 -16.5t-27 -6h-299v148h202z" />
    <glyph glyph-name="FL0054h" unicode="T" horiz-adv-x="498" 
d="M35 561v148h428v-148h-138v-325q0 -14 1 -35t3.5 -45t5.5 -49t8 -46l4 -19l5 -16l-179 -138v673h-138z" />
    <glyph glyph-name="FL0055h" unicode="U" horiz-adv-x="563" 
d="M295 0h-25q-47 0 -83.5 18t-64 49.5t-46 74t-28.5 90.5q-6 29 -9.5 57t-3.5 55v365h154v-344q0 -17 2 -46t9 -61q4 -21 11 -41t17 -35t22.5 -24.5t29.5 -9.5h2q27 0 45 25.5t28.5 60.5t14.5 71t4 56v348h154v-355q0 -67 -13.5 -130.5t-42 -113t-72.5 -80t-105 -30.5z" />
    <glyph glyph-name="FL0056h" unicode="V" horiz-adv-x="481" 
d="M187 311v398h-152v-379q0 -25 8 -60q10 -50 33 -98.5t51 -86.5t57.5 -61.5t53.5 -23.5h5q27 0 62.5 31.5t66.5 80.5t52.5 108.5t21.5 116.5v372h-152v-398q-5 -35 -19 -70t-34 -61q-17 22 -30.5 50t-19.5 58l-3 11q-1 5 -1 12z" />
    <glyph glyph-name="FL0057h" unicode="W" horiz-adv-x="588" 
d="M35 709v-709h145l114 167l114 -167h145v709h-152v-491l-103 148h-9l-101 -148v491h-153z" />
    <glyph glyph-name="FL0058h" unicode="X" horiz-adv-x="563" 
d="M528 75v-75h-154v64q0 16 -2 44.5t-9 59.5q-5 21 -11.5 41.5t-16.5 36.5t-23 26t-30 10h-2q-29 0 -46.5 -27t-27.5 -63t-13.5 -72.5t-3.5 -55.5v-64h-154v75q0 81 19.5 155.5t62.5 125.5q-26 31 -42.5 69.5t-26.5 83.5q-11 56 -13 125v75h154v-64q0 -17 2.5 -46.5
t9.5 -61.5q4 -21 11 -40.5t16.5 -34.5t22 -24.5t29.5 -9.5h2q28 0 45.5 25.5t28 60.5t14.5 70.5t4 56.5v68h154v-75q0 -81 -20 -155t-60 -125q48 -58 67 -149q13 -61 13 -130z" />
    <glyph glyph-name="FL0059h" unicode="Y" horiz-adv-x="563" 
d="M528 634q0 -59 -10 -115.5t-31 -103.5t-54.5 -80.5t-79.5 -46.5v-52q0 -14 1 -34t2.5 -43t4.5 -47t8 -45q2 -13 5 -23t6 -18l-178 -138v403q-63 24 -100 81t-54 134q-11 56 -13 128v75h154v-64q0 -17 2.5 -46.5t9.5 -61.5q4 -21 11 -40.5t16.5 -34.5t22 -24.5t29.5 -9.5
h2q28 0 45.5 25.5t28 60.5t14.5 70.5t4 56.5v68h154v-75z" />
    <glyph glyph-name="FL005Ah" unicode="Z" horiz-adv-x="446" 
d="M411 148v-148h-372v78q0 55 11 78l185 405h-200v148h373v-83q0 -22 -1 -40.5t-9 -31.5l-189 -406h202z" />
    <glyph glyph-name="FL005Bh" unicode="[" horiz-adv-x="312" 
d="M35 -68v767h242v-132h-103v-503h103v-132h-242z" />
    <glyph glyph-name="FL005Ch" unicode="\" horiz-adv-x="449" 
d="M414 0h-137l-242 633h138z" />
    <glyph glyph-name="FL005Dh" unicode="]" horiz-adv-x="312" 
d="M277 -68v767h-242v-132h103v-503h-103v-132h242z" />
    <glyph glyph-name="FL005Eh" unicode="^" horiz-adv-x="434" 
d="M399 -100v432q0 44 -10 91q-7 32 -18.5 64t-28.5 59.5t-39.5 48.5t-50.5 32q-6 2 -14.5 4t-10.5 2h-192v-633h139v220h87l2 -9v-7q0 -17 -1.5 -41t-5 -50t-8.5 -50t-12 -40zM179 503q32 -15 50.5 -48.5t26.5 -71.5l3 -14q1 -5 1.5 -8.5t0.5 -5.5l-1 -3h-86v143z" />
    <glyph glyph-name="FL005Fh" unicode="_" horiz-adv-x="442" 
d="M35 65h372v-88h-372v88z" />
    <glyph glyph-name="FL0060h" unicode="`" horiz-adv-x="238" 
d="M95 632l-60 106h120l48 -106h-108z" />
    <glyph glyph-name="a" unicode="a" horiz-adv-x="434" 
d="M35 -100v432q0 39 8.5 84t26.5 87t45.5 75.5t66.5 48.5q5 2 14 4t11 2h192v-633h-139v220h-87l-2 -9q1 -12 2 -29t2.5 -36.5t4 -40t6.5 -39.5q6 -26 12 -43zM255 503q-19 -9 -33 -25t-24 -36t-16 -42.5t-9 -44.5l1 -3h86v143z" />
    <glyph glyph-name="FL0062h" unicode="b" horiz-adv-x="441" 
d="M316 0h-281v633h281q7 0 17.5 -4.5t21.5 -13.5t22 -23.5t19 -33.5q2 -3 4 -12l2 -11q5 -22 5 -36q0 -133 -100 -183q76 -38 94 -123q6 -30 6 -59q0 -14 -2.5 -29t-8.5 -30q-8 -20 -19 -34t-22.5 -23t-22 -13.5t-16.5 -4.5zM173 269v-139h60q5 5 7.5 11.5t4.5 8.5
q7 17 7 37v7l-2 13q-5 26 -25.5 41t-49.5 23zM175 362q34 10 55 29.5t22 54.5q0 5 -0.5 10t-1.5 10l-5 18l-4 8t-8 11h-60v-139z" />
    <glyph glyph-name="FL0063h" unicode="c" horiz-adv-x="425" 
d="M390 501h-122q-25 -7 -42.5 -26t-29 -44t-16.5 -53t-5 -52q0 -13 2 -35t7 -47q4 -20 11 -40t17 -36t23 -26t30 -10h125v-132h-140q-43 0 -77 16.5t-59.5 45t-43 66.5t-26.5 82q-5 23 -7.5 47t-2.5 48v19q0 52 11.5 107t34.5 100t57 73.5t79 28.5h174v-132z" />
    <glyph glyph-name="d" unicode="d" horiz-adv-x="468" 
d="M252 0h-217v633h183q42 0 76 -16.5t59.5 -45t43 -66.5t26.5 -81q5 -26 8 -52.5t3 -54.5v-8q0 -53 -12 -107.5t-35.5 -99.5t-57.5 -73.5t-77 -28.5zM173 133h27q24 6 42 25t30 44t17.5 53t5.5 52l-2.5 30.5t-6.5 39.5q-5 22 -12.5 44t-18 40t-24.5 29t-32 11h-26v-368z
" />
    <glyph glyph-name="e" unicode="e" horiz-adv-x="426" 
d="M35 0v633h356v-132h-217v-119h154v-132h-154v-118h217v-132h-356z" />
    <glyph glyph-name="FL0066h" unicode="f" horiz-adv-x="426" 
d="M174 201v49h154v132h-154v119h217v132h-356v-733l163 123q-3 8 -6 17t-5 20q-8 35 -10.5 75t-2.5 66z" />
    <glyph glyph-name="FL0067h" unicode="g" horiz-adv-x="469" 
d="M433 382v-171q0 -12 1 -31t3 -40t5 -43t7 -41l4 -18q1 -2 2 -6t3 -9l-163 -123v100h-45q-43 0 -77 16.5t-59.5 45t-43 66.5t-26.5 82q-5 23 -7.5 47t-2.5 48v19q0 52 11.5 107t34.5 100t57 73.5t79 28.5h217v-132h-165q-24 -7 -41.5 -26t-29 -44t-16.5 -53t-5 -52
q0 -14 2.5 -37t7.5 -49q4 -20 10.5 -40t16.5 -36t22.5 -25.5t29.5 -9.5h30v253h138z" />
    <glyph glyph-name="FL0068h" unicode="h" horiz-adv-x="449" 
d="M414 633v-633h-137v250h-104v-39q0 -12 1 -31t3 -40t5 -43t7 -41l4 -18q1 -2 2 -6t3 -9l-163 -123v733h138v-251h104v251h137z" />
    <glyph glyph-name="i" unicode="i" 
d="M173 633v-422q0 -12 1 -30t3 -39t5 -43t7 -41l4 -19l5 -16l-163 -123v733h138z" />
    <glyph glyph-name="FL006Ah" unicode="j" horiz-adv-x="434" 
d="M180 130l-6 9v112h-139v-251h185q25 0 56 28t58.5 71.5t46 97t18.5 104.5v332h-138v-355q-4 -21 -9.5 -43.5t-15 -43t-23.5 -36.5t-33 -25z" />
    <glyph glyph-name="FL006Bh" unicode="k" horiz-adv-x="440" 
d="M405 566q0 -76 -20 -146.5t-63 -115.5q48 -84 98.5 -158t118.5 -146h-146q-61 61 -108 130l-93 138l-16 24h-3v-81q0 -12 1 -31t3 -40t5 -43t7 -41l4 -18q1 -2 2 -6t3 -9l-163 -123v733h138v-281l2 2q8 2 14 3t12 3q21 12 33 38t19 56t9 59t2 48v72h140z" />
    <glyph glyph-name="FL006Ch" unicode="l" horiz-adv-x="426" 
d="M35 0v633h139v-501h217v-132h-356z" />
    <glyph glyph-name="m" unicode="m" horiz-adv-x="541" 
d="M35 0v633h132l104 -149l103 149h132v-633h-138v439l-94 -133h-8l-92 133v-439h-139z" />
    <glyph glyph-name="n" unicode="n" horiz-adv-x="460" 
d="M35 0v633h137l115 -152v152h138v-633h-138v305l-113 151v-456h-139z" />
    <glyph glyph-name="FL006Fh" unicode="o" horiz-adv-x="531" 
d="M287 0h-39q-42 0 -75.5 16.5t-59 44.5t-42.5 66t-26 81q-6 26 -8.5 53t-2.5 55v5q0 52 10 107.5t35 101t66 74.5t104 29h38q43 0 76.5 -16.5t57.5 -44.5t40 -64.5t24 -76.5q6 -27 8.5 -55t3.5 -55v-5q0 -60 -12 -116.5t-37.5 -101t-65.5 -71.5t-95 -27zM265 501
q-23 -6 -40 -23.5t-28 -41t-16.5 -50.5t-5.5 -51v-9q0 -14 2 -38.5t8 -50.5q4 -20 10.5 -38.5t15.5 -33.5t21.5 -24t29.5 -9h8q25 0 41.5 23t27 54.5t15 63.5t4.5 50v3q-1 15 -2.5 31.5t-5.5 34.5q-8 37 -26 69t-52 40h-7z" />
    <glyph glyph-name="P" unicode="p" horiz-adv-x="440" 
d="M179 280h-6v-69q0 -12 1 -31t3 -40t5 -43t7 -41l4 -18q1 -2 2 -6t3 -9l-163 -123v733h281q7 0 17.5 -4.5t21.5 -13.5t22 -23.5t19 -33.5q2 -3 4 -12l2 -11q5 -22 5 -36q0 -49 -14.5 -89.5t-42.5 -69t-71 -44.5t-100 -16zM173 352l2 -2q34 10 55 35.5t22 60.5q0 5 -0.5 10
t-1.5 10l-5 18l-4 8t-8 11h-60v-151z" />
    <glyph glyph-name="FL0071h" unicode="q" horiz-adv-x="532" 
d="M287 0h-39q-42 0 -75.5 16.5t-59 44.5t-42.5 66t-26 81q-6 26 -8.5 53t-2.5 55v5q0 52 10 107.5t35 101t66 74.5t104 29h38q43 0 76.5 -16.5t57.5 -44.5t40 -64.5t24 -76.5q6 -27 8.5 -55t3.5 -55v-5q0 -58 -11 -111.5t-34 -98.5l55 -73t62 -75h-145l-27 30l-28 32
q-43 -20 -82 -20zM193 292h145q3 -17 14 -26q2 22 3.5 37t1.5 23q-1 16 -2.5 33.5t-5.5 34.5q-8 36 -26.5 67.5t-50.5 39.5h-7q-23 -6 -40 -23.5t-28 -41t-16.5 -50.5t-5.5 -51v-9q0 -14 2 -38.5t8 -50.5q4 -20 10.5 -38.5t15.5 -33.5t21.5 -24t29.5 -9h8q10 0 16 3
q-28 42 -52 82t-41 75z" />
    <glyph glyph-name="r" unicode="r" horiz-adv-x="442" 
d="M176 280h-3v-69q0 -12 1 -31t3 -40t5 -43t7 -41l4 -18q1 -2 2 -6t3 -9l-163 -123v733h281q7 0 17.5 -4.5t21.5 -13.5t22 -23.5t19 -33.5q2 -3 4 -12l2 -11q5 -22 5 -36q-1 -63 -25.5 -106.5t-70.5 -69.5l52 -87.5t52 -81t57.5 -77.5t66.5 -77h-146q-66 66 -117 135.5
t-100 144.5zM173 352l2 -2q34 10 55 35.5t22 60.5q0 5 -0.5 10t-1.5 10l-5 18l-4 8t-8 11h-60v-151z" />
    <glyph glyph-name="s" unicode="s" horiz-adv-x="412" 
d="M219 132l-172 363q-2 4 -3 7.5t-3 8.5q-3 15 -3 32l1 21q2 27 19 48t41 21h278v-132h-182l168 -362q2 -2 4 -11l2 -10q5 -25 5 -48q0 -14 -5.5 -27t-15 -22.5t-21.5 -15t-25 -5.5h-272v132h184z" />
    <glyph glyph-name="FL0074h" unicode="t" horiz-adv-x="459" 
d="M35 501v132h389v-132h-125v-290q0 -13 1.5 -33t3.5 -42.5t5.5 -45.5t7.5 -42l3 -14q2 -8 3 -11l-162 -123v601h-126z" />
    <glyph glyph-name="FL0075h" unicode="u" horiz-adv-x="518" 
d="M272 0q55 0 95 27t65.5 71.5t38 101t12.5 116.5v317h-140v-307q0 -17 -3.5 -49.5t-12.5 -64.5t-25 -56t-42 -24h-2q-15 0 -26.5 8.5t-20.5 22.5t-15.5 31.5t-10.5 36.5q-6 28 -8 54.5t-2 40.5v307h-140v-317q0 -28 2.5 -55t8.5 -53q9 -43 26 -81t42.5 -66t59 -44.5
t75.5 -16.5h23z" />
    <glyph glyph-name="FL007Dh" unicode="v" horiz-adv-x="444" 
d="M173 278v355h-138v-332q0 -29 6 -59q10 -45 31 -88.5t46.5 -77.5t52.5 -55t49 -21h4q26 0 58 28t60.5 71.5t47.5 97t19 104.5v332h-138v-355q-5 -31 -17.5 -62.5t-31.5 -54.5q-17 20 -29 46t-17 52l-2 9q-1 4 -1 8v2z" />
    <glyph glyph-name="FL0077h" unicode="w" horiz-adv-x="541" 
d="M35 633v-633h132l104 149l103 -149h132v633h-138v-438l-94 132h-8l-92 -132v438h-139z" />
    <glyph glyph-name="FL0078h" unicode="x" horiz-adv-x="518" 
d="M483 67q0 32 -2.5 60.5t-8.5 54.5q-8 39 -23 73t-38 61q36 46 53.5 112t18.5 138v67h-140v-57q0 -17 -3.5 -49.5t-12.5 -64.5t-25 -56t-42 -24h-2q-15 0 -27 8.5t-21 22.5t-15 31.5t-10 36.5q-6 28 -8 54.5t-2 40.5v57h-140v-67q0 -58 10 -107q18 -83 65 -141
q-38 -46 -56.5 -112.5t-18.5 -138.5v-67h140v57q0 17 3 49.5t11.5 65t25 56.5t43.5 24h2q15 0 27 -8.5t21 -22.5t15 -31.5t10 -36.5q6 -29 8 -55.5t2 -40.5v-57h140v67z" />
    <glyph glyph-name="FL0079h" unicode="y" horiz-adv-x="518" 
d="M483 566q0 -53 -9 -103t-28.5 -92t-49.5 -72t-72 -42v-46q0 -12 1 -31t3 -40t5 -43t7 -41l4 -18q1 -2 2 -6t3 -9l-162 -123v360q-57 20 -91.5 73t-49.5 124q-6 26 -8.5 53.5t-2.5 55.5v67h140v-57q0 -14 2 -40.5t8 -54.5q4 -19 10 -36.5t15 -31.5t21 -22.5t27 -8.5h2
q26 0 42 24t25 56t12 64.5t4 49.5v57h140v-67z" />
    <glyph glyph-name="FL007Ah" unicode="z" horiz-adv-x="412" 
d="M377 132v-132h-338v70q0 46 10 69l168 362h-182v132h339v-69q0 -20 -1.5 -38t-7.5 -31l-172 -363h184z" />
    <glyph glyph-name="FL007Bh" unicode="{" 
d="M173 633v-633h-138v633h138z" />
    <glyph glyph-name="FL007Ch" unicode="|" horiz-adv-x="208" 
d="M35 -142v915h138v-915h-138z" />
    <glyph glyph-name="FL0076h" unicode="}" horiz-adv-x="434" 
d="M255 130l5 9v494h139v-633h-184q-21 0 -47.5 20.5t-51 54.5t-45 77t-29.5 88q-3 16 -5 31t-2 30v332h138v-355v-5t2 -8l2 -12q8 -38 27 -72.5t51 -50.5z" />
    <glyph glyph-name="FL007Eh" unicode="~" horiz-adv-x="466" 
d="M221 250l-36 95l-35 -95h-115l54 133h156l36 -95l36 95h114l-54 -133h-156z" />
    <glyph glyph-name="FL007Fh" horiz-adv-x="158" 
 />
    <glyph glyph-name="FL20ACh" unicode="&#x20ac;" horiz-adv-x="503" 
d="M35 459h96q9 36 24.5 67.5t36 55t46.5 37.5t56 14h174v-132h-122q-33 -10 -56 -42h131v-124h-169v-31q0 -3 1 -7h168v-124h-134q10 -18 24 -29.5t32 -11.5h125v-132h-140q-38 0 -69 13t-56 36.5t-42.5 55t-28.5 68.5h-97v124h77v38h-77v124z" />
    <glyph glyph-name="FL201Ah" unicode="&#x201a;" 
d="M35 -76v208h139v-126q-1 -9 -15 -22.5t-34.5 -26.5t-44.5 -22.5t-45 -10.5z" />
    <glyph glyph-name="FL0192h" unicode="&#x192;" horiz-adv-x="426" 
d="M174 250h154v132h-154v119h217v132h-356l1 -3v-419q0 -15 -1 -40t-4 -52t-8 -53t-12 -43l163 -123v350z" />
    <glyph glyph-name="FL201Eh" unicode="&#x201e;" horiz-adv-x="383" 
d="M209 -76v208h139v-126q-1 -9 -15 -22.5t-34.5 -26.5t-44.5 -22.5t-45 -10.5zM35 -76v208h139v-126q-1 -9 -15 -22.5t-34.5 -26.5t-44.5 -22.5t-45 -10.5z" />
    <glyph glyph-name="FL2026h" unicode="&#x2026;" horiz-adv-x="587" 
d="M413 0v132h139v-132h-139zM224 0v132h139v-132h-139zM35 0v132h139v-132h-139z" />
    <glyph glyph-name="FL2020h" unicode="&#x2020;" horiz-adv-x="395" 
d="M35 479h94v154h138v-154h93v-132h-93v-136q0 -12 1 -31t3 -40t5 -43t7 -41l4 -18q1 -2 2 -6t3 -9l-163 -123v447h-94v132z" />
    <glyph glyph-name="FL2021h" unicode="&#x2021;" horiz-adv-x="395" 
d="M35 479h94v154h138v-154h93v-132h-93v-62h93v-132h-91q2 -23 4.5 -47t7.5 -45q2 -11 5 -20.5t6 -17.5l-163 -123v253h-94v132h94v62h-94v132z" />
    <glyph glyph-name="FL02C6h" unicode="&#x2c6;" horiz-adv-x="374" 
d="M285 738l54 -106h-116l-36 76l-36 -76h-116l55 106h195z" />
    <glyph glyph-name="FL2030h" unicode="&#x2030;" horiz-adv-x="892" 
d="M375 633h138l-242 -633h-137zM497 202q-14 -3 -18.5 -17.5t-4.5 -26.5l1 -3v-10q0 -5 1 -10q2 -9 7 -17t13 -8h2q8 0 12.5 11.5t7.5 22.5l1 2q2 5 2 8v6q0 3 -0.5 6t-1.5 8q-2 10 -7 18t-14 10h-1zM508 0h-20q-42 0 -66.5 28.5t-33.5 70.5q-3 14 -4.5 29t-2.5 30v2
q0 26 5 54t17.5 50.5t33 37t52.5 14.5h19q22 0 39 -8.5t29 -22.5t19.5 -32.5t12.5 -38.5q2 -14 3.5 -27t1.5 -27v-6q0 -30 -6.5 -57.5t-19 -49t-32.5 -34.5t-47 -13zM151 518q-14 -3 -18.5 -17.5t-4.5 -26.5v-9q0 -5 2 -12q2 -10 7 -18.5t13 -8.5h2q8 0 12.5 11.5t7.5 22.5
l1 2q1 5 1.5 9t0.5 6q0 3 -0.5 5.5l-1.5 7.5q-2 10 -7 18t-14 10h-1zM162 316h-20q-42 0 -66.5 28.5t-33.5 70.5q-3 14 -5 29t-2 30v2q0 26 5 54t17.5 50.5t33 37t52.5 14.5h19q22 0 38.5 -8.5t28.5 -22.5t20 -32.5t12 -38.5q6 -27 6 -54v-6q0 -30 -6.5 -57.5t-19 -49
t-32.5 -34.5t-47 -13zM741 202q-14 -3 -18.5 -17.5t-4.5 -26.5l1 -3v-10q0 -5 1 -10q2 -9 7 -17t13 -8h2q8 0 12.5 11.5t7.5 22.5l1 2q2 5 2 8v6q0 3 -0.5 6t-1.5 8q-2 10 -7 18t-14 10h-1zM752 0h-20q-42 0 -66.5 28.5t-33.5 70.5q-3 14 -4.5 29t-2.5 30v2q0 26 5 54
t17.5 50.5t33 37t52.5 14.5h19q22 0 39 -8.5t29 -22.5t19.5 -32.5t12.5 -38.5q2 -14 3.5 -27t1.5 -27v-6q0 -30 -6.5 -57.5t-19 -49t-32.5 -34.5t-47 -13z" />
    <glyph glyph-name="FL0160h" unicode="&#x160;" horiz-adv-x="412" 
d="M108 699l-54 106h116l36 -76l36 76h116l-55 -106h-195zM219 132l-172 363q-1 1 -3 7l-1 8q-4 17 -4 54q0 27 18 48t42 21h278v-132h-182l168 -362q2 -2 4 -11l2 -10q5 -25 5 -48t-11.5 -38.5t-28.5 -23.5q-5 -6 -13.5 -7t-13.5 -1h-272v132h184z" />
    <glyph glyph-name="FL2039h" unicode="&#x2039;" horiz-adv-x="176" 
d="M35 423l106 54v-116l-76 -36l76 -36v-116l-106 55v195z" />
    <glyph glyph-name="FL0152h" unicode="&#x152;" horiz-adv-x="768" 
d="M733 0h-482q-43 0 -77 16.5t-59.5 45t-43 66.5t-26.5 82q-5 23 -7.5 47t-2.5 48v19q0 52 11.5 107t34.5 100t57 73.5t79 28.5h516v-132h-217v-119h154v-132h-154v-118h217v-132zM175 326q0 -13 2.5 -34.5t7.5 -46.5q4 -21 11 -41t17 -36t23 -26t30 -10h111v369h-108
q-24 -7 -42 -26t-29.5 -44t-17 -53t-5.5 -52z" />
    <glyph glyph-name="FL017Dh" unicode="&#x17d;" horiz-adv-x="412" 
d="M365 495q6 13 7 31t2 38v69h-339v-132h182l-168 -362q-10 -23 -10 -69v-70h338v132h-184zM303 699l55 106h-116l-36 -76l-36 76h-116l54 -106h195z" />
    <glyph glyph-name="FL2018h" unicode="&#x2018;" 
d="M174 634v-218h-139v136q1 9 15 22.5t34.5 26.5t44.5 22.5t45 10.5z" />
    <glyph glyph-name="FL2019h" unicode="&#x2019;" 
d="M35 415v218h139v-136q-1 -9 -15 -22.5t-34.5 -26.5t-44.5 -22.5t-45 -10.5z" />
    <glyph glyph-name="FL201Ch" unicode="&#x201c;" horiz-adv-x="384" 
d="M174 634v-218h-139v136q1 9 15 22.5t34.5 26.5t44.5 22.5t45 10.5zM349 634v-218h-139v136q1 9 15 22.5t34.5 26.5t44.5 22.5t45 10.5z" />
    <glyph glyph-name="FL201Dh" unicode="&#x201d;" horiz-adv-x="384" 
d="M210 415v218h139v-136q-1 -9 -15 -22.5t-34.5 -26.5t-44.5 -22.5t-45 -10.5zM35 415v218h139v-136q-1 -9 -15 -22.5t-34.5 -26.5t-44.5 -22.5t-45 -10.5z" />
    <glyph glyph-name="FL2022h" unicode="&#x2022;" horiz-adv-x="533" 
d="M288 0h-39q-42 0 -75.5 16.5t-59 44.5t-42.5 66t-26 81q-6 26 -8.5 53t-2.5 55v5q0 52 10 107.5t35 101t66 74.5t104 29h38q43 0 76.5 -16.5t57.5 -44.5t40 -64.5t24 -76.5q6 -27 8.5 -55t3.5 -55v-5q0 -60 -12 -116.5t-37.5 -101t-65.5 -71.5t-95 -27z" />
    <glyph glyph-name="FL2013h" unicode="&#x2013;" horiz-adv-x="323" 
d="M35 382h253v-132h-253v132z" />
    <glyph glyph-name="FL2014h" unicode="&#x2014;" horiz-adv-x="436" 
d="M35 382h366v-132h-366v132z" />
    <glyph glyph-name="FL02DCh" unicode="&#x2dc;" horiz-adv-x="471" 
d="M223 632l-36 76l-36 -76h-116l55 106h158l36 -76l36 76h116l-55 -106h-158z" />
    <glyph glyph-name="FL2122h" unicode="&#x2122;" horiz-adv-x="330" 
d="M169 671q2 2 6 2q5 0 5 1l-1 1q-1 0 -0.5 0.5t1.5 0.5q3 0 7.5 -3.5t9.5 -9t9.5 -12.5t6.5 -13l2 -7q6 -17 9.5 -29t6.5 -21q4 11 6.5 21t5.5 24q8 29 20 39t26 10h6v-133h-15v89l-5 9l-4 -12t-4 -11l-16.5 -43t-9 -22t-5.5 -8.5t-5 -1.5t-5.5 1t-4.5 7l-32 86l-6 -7v-87
h-14v129zM35 654v21h112v-21h-46v-112h-20v112h-46z" />
    <glyph glyph-name="FL0161h" unicode="&#x161;" horiz-adv-x="412" 
d="M108 699l-54 106h116l36 -76l36 76h116l-55 -106h-195zM219 132l-172 363q-1 1 -3 7l-1 8q-4 17 -4 54q0 27 18 48t42 21h278v-132h-182l168 -362q2 -2 4 -11l2 -10q5 -25 5 -48t-11.5 -38.5t-28.5 -23.5q-5 -6 -13.5 -7t-13.5 -1h-272v132h184z" />
    <glyph glyph-name="FL203Ah" unicode="&#x203a;" horiz-adv-x="176" 
d="M141 423l-106 54v-116l76 -36l-76 -36v-116l106 55v195z" />
    <glyph glyph-name="FL0153h" unicode="&#x153;" horiz-adv-x="768" 
d="M733 0h-482q-43 0 -77 16.5t-59.5 45t-43 66.5t-26.5 82q-5 23 -7.5 47t-2.5 48v19q0 52 11.5 107t34.5 100t57 73.5t79 28.5h516v-132h-217v-119h154v-132h-154v-118h217v-132zM175 326q0 -13 2.5 -34.5t7.5 -46.5q4 -21 11 -41t17 -36t23 -26t30 -10h111v369h-108
q-24 -7 -42 -26t-29.5 -44t-17 -53t-5.5 -52z" />
    <glyph glyph-name="FL017Eh" unicode="&#x17e;" horiz-adv-x="412" 
d="M365 495q6 13 7 31t2 38v69h-339v-132h182l-168 -362q-10 -23 -10 -69v-70h338v132h-184zM303 699l55 106h-116l-36 -76l-36 76h-116l54 -106h195z" />
    <glyph glyph-name="FL0178h" unicode="&#x178;" horiz-adv-x="518" 
d="M483 566q0 -53 -9 -103t-28.5 -92t-49.5 -72t-72 -42v-46q0 -12 1 -31t3 -40t5 -43t7 -41l4 -18q1 -2 2 -6t3 -9l-162 -123v360q-57 20 -91.5 73t-49.5 124q-6 26 -8.5 53.5t-2.5 55.5v67h140v-57q0 -14 2 -40.5t8 -54.5q4 -19 10 -36.5t15 -31.5t21 -22.5t27 -8.5h2
q26 0 42 24t25 56t12 64.5t4 49.5v57h140v-67zM107 692v106h116v-106h-116zM411 798v-106h-116v106h116z" />
    <glyph glyph-name="FL00A1h" unicode="&#xa1;" 
d="M173 0v422h-138v-422h138zM35 633v-132h139v132h-139z" />
    <glyph glyph-name="FL00A2h" unicode="&#xa2;" horiz-adv-x="426" 
d="M330 693h-138v-107q-38 -6 -67.5 -29t-49.5 -58t-30 -79t-10 -92v-12q0 -26 2 -49t6 -43q14 -67 51.5 -112t97.5 -60v-114h138v107h61v132h-125q-20 0 -34 9t-24 23t-16.5 31.5t-10.5 35.5l-1 4q-2 12 -3.5 22.5t-1.5 18.5v5q1 49 23 82.5t71 47.5h122v132h-61v105z" />
    <glyph glyph-name="FL00A3h" unicode="&#xa3;" horiz-adv-x="459" 
d="M35 362v-90h103q-44 -52 -44 -138v-4h-59v-130h389v130h-156q-6 5 -8.5 11.5t-3.5 8.5q-2 3 -3 9l-2 10q-1 4 -1 8q0 5 -1 10q1 36 22 55t55 29l28 -2v94h-29q-29 8 -49 22.5t-26 40.5q-1 5 -1 10v10q2 18 7 38q2 2 4.5 8t7.5 11h51v130h-134q-7 0 -17.5 -4.5
t-21.5 -13.5t-22 -23.5t-19 -33.5q-11 -36 -11 -59q0 -16 2 -30.5t4 -27.5q10 -46 37 -79h-102z" />
    <glyph glyph-name="FL00A4h" unicode="&#xa4;" horiz-adv-x="518" 
d="M483 0h-140v57q0 11 -1 24.5t-3 30.5q-26 -16 -64 -16h-29q-36 0 -68 17q-2 -17 -2.5 -32t-0.5 -24v-57h-140v67q1 63 13.5 120t40.5 102q-1 3 -1 13v30q0 5 0.5 9t0.5 6q-15 26 -26 54t-18 59q-5 25 -7.5 51.5t-2.5 54.5v67h140v-68q0 -20 3 -45q28 16 69 16h28
q36 0 64 -16q2 17 2.5 31.5t1.5 24.5v57h140v-67q-1 -63 -13.5 -121.5t-41.5 -103.5v-2q1 -4 1 -9v-37q29 -46 44 -112q10 -47 10 -114v-67zM258 444q-18 -4 -30.5 -17t-21 -30t-12 -36t-3.5 -35v-3q0 -9 1 -23.5t5 -31.5q3 -15 8 -29t12 -25.5t17 -18.5t22 -7h6
q19 0 31.5 16.5t19.5 39t10 45t3 34.5v6q0 13 -5 36q-5 26 -19 49.5t-39 29.5h-5z" />
    <glyph glyph-name="FL00A5h" unicode="&#xa5;" horiz-adv-x="518" 
d="M483 566v67h-140v-57q0 -17 -3.5 -49.5t-12.5 -64.5t-25 -56t-42 -24h-2q-15 0 -27 8.5t-20.5 22t-14.5 31t-10 36.5q-6 29 -8 55.5l-3 40.5v57h-140v-67q0 -28 2.5 -55.5t8.5 -53.5q15 -71 49.5 -124t91.5 -73v-1h-136v-116h136v-54h-136v-116h136v-142l162 123
q-4 10 -4 9q-1 7 -3 10h125v116h-141q-1 7 -1.5 13t-0.5 11v30h143v116h-136q41 13 70 43.5t47 72t26.5 91t8.5 100.5z" />
    <glyph glyph-name="FL00A6h" unicode="&#xa6;" horiz-adv-x="208" 
d="M173 799v-658q0 -15 1.5 -40t4.5 -52t7.5 -53t11.5 -43l-163 -123v969h138z" />
    <glyph glyph-name="FL00A7h" unicode="&#xa7;" horiz-adv-x="518" 
d="M246 96q-36 0 -68 17q-2 -17 -2.5 -32t-0.5 -24v-57h-140v67q1 63 13.5 120t40.5 102q-1 3 -1 13v17q0 37 7.5 75.5t25.5 70t48.5 51.5t77.5 20h28q36 0 64 -16q2 17 2.5 31.5t1.5 24.5v57h140v-67q-1 -63 -13.5 -121.5t-41.5 -103.5v-2q1 -4 1 -9v-14q0 -42 -9 -81.5
t-28 -70t-48 -49.5t-69 -19h-29zM258 444q-18 -4 -30.5 -17t-21 -30t-12 -36t-3.5 -35v-3q0 -9 1 -23.5t5 -31.5q3 -15 8 -29t12 -25.5t17 -18.5t22 -7h6q19 0 31.5 16.5t19.5 39t10 45t3 34.5v6q0 13 -5 36q-5 26 -19 49.5t-39 29.5h-5z" />
    <glyph glyph-name="FL00A8h" unicode="&#xa8;" horiz-adv-x="374" 
d="M35 632v106h116v-106h-116zM339 738v-106h-116v106h116z" />
    <glyph glyph-name="FL00A9h" unicode="&#xa9;" horiz-adv-x="251" 
d="M126 678q20 0 42 -11q26 -16 34 -35q14 -23 14 -44q0 -19 -14 -45q-6 -11 -12.5 -17t-16.5 -13l-4 -3q-20 -8 -31.5 -10l-11.5 -2q-24 0 -46 12q-11 8 -18 15t-15 18q-6 8 -8.5 19.5t-3.5 25.5q0 51 46 79q14 5 24 8t21 3zM126 664q-43 0 -66 -38q-6 -10 -8 -19t-2 -19
q0 -20 10 -36q8 -16 27 -29q16 -7 26.5 -8.5t15.5 -1.5q17 0 34 10q16 10 27 29t11 36v4q0 13 -6 26t-16.5 23t-23.5 16.5t-26 6.5h-3zM154 574l14 -4q-7 -34 -42 -34q-48 0 -48 52q0 51 48 51q33 0 40 -28l-14 -3q-8 18 -26 18q-32 0 -32 -38q0 -36 31 -36q23 0 29 22z" />
    <glyph glyph-name="FL00AAh" unicode="&#xaa;" horiz-adv-x="444" 
d="M173 351h98l-8 38q-5 23 -16 44.5t-25 38.5q-19 -23 -31.5 -54.5t-17.5 -62.5v-4zM173 0h-138v332q0 51 19.5 104.5t47.5 97t60 71.5t58 28h4q22 0 49 -21t52.5 -54.5t46.5 -77t31 -88.5q6 -32 6 -60v-332h-138v219h-98v-219z" />
    <glyph glyph-name="FL00ABh" unicode="&#xab;" horiz-adv-x="315" 
d="M174 423l106 54v-116l-76 -36l76 -36v-116l-106 55v195zM35 423l106 54v-116l-76 -36l76 -36v-116l-106 55v195z" />
    <glyph glyph-name="FL00ACh" unicode="&#xac;" horiz-adv-x="436" 
d="M35 382h366v-249h-132v117h-234v132z" />
    <glyph glyph-name="FL00ADh" unicode="&#xad;" horiz-adv-x="262" 
d="M35 382h192v-132h-192v132z" />
    <glyph glyph-name="FL00AEh" unicode="&#xae;" horiz-adv-x="251" 
d="M126 677q24 0 42 -12q23 -11 36 -33.5t12 -44.5q0 -19 -14 -45q-8 -20 -33 -33q-19 -9 -31 -10.5l-12 -1.5q-27 0 -46 12q-10 7 -17.5 15t-15.5 18q-12 19 -12 45q0 14 2.5 22.5t8.5 19.5l1 2q11 20 34 34q21 12 45 12zM126 662q-43 0 -65 -37q-12 -20 -11 -38l2 -10
q2 -5 4 -12t4 -15q7 -13 27 -28q16 -6 25.5 -7.5t12.5 -1.5h1q9 0 18 2t19 7q10 7 16 14t11 14q6 14 8.5 25.5l2.5 11.5l-1 4q0 13 -6 26t-16 23t-23 16t-26 6h-3zM87 537v97h32q21 0 25 -4q4 -2 6 -3.5t5 -3.5q6 -8 6 -15q0 -26 -29 -27q9 -4 12 -9t11 -16l12 -19h-20
l-7 16q-7 10 -11.5 15t-5.5 6q-4 4 -12 4h-9v-41h-15zM102 591h18q20 -2 23.5 9.5t-8.5 19.5q-1 1 -16 1h-17v-30z" />
    <glyph glyph-name="FL00AFh" unicode="&#xaf;" horiz-adv-x="442" 
d="M35 693h372v-88h-372v88z" />
    <glyph glyph-name="FL00B0h" unicode="&#xb0;" horiz-adv-x="186" 
d="M35 738v-106h116v106h-116zM75 670v30h35v-30h-35z" />
    <glyph glyph-name="FL00B1h" unicode="&#xb1;" horiz-adv-x="436" 
d="M284 558v-117h117v-132h-117v-117h-132v117h-117v132h117v117h132zM401 132v-132h-366v132h366z" />
    <glyph glyph-name="FL00B2h" unicode="&#xb2;" horiz-adv-x="249" 
d="M160 473l50 138q4 7 3.5 16t0.5 19q0 4 -1 8q-2 11 -11 19t-20 8h-147v-108h52l-47 -138q-5 -18 -5 -35v-35h179v108h-54z" />
    <glyph glyph-name="FL00B3h" unicode="&#xb3;" horiz-adv-x="434" 
d="M179 130l-5 9v494h-139v-633h184q25 0 56.5 28t59 71.5t46 97t18.5 104.5v332h-138v-355q-4 -21 -10 -43.5t-16 -43t-23.5 -36.5t-32.5 -25z" />
    <glyph glyph-name="FL00B4h" unicode="&#xb4;" horiz-adv-x="238" 
d="M143 632l60 106h-120l-48 -106h108z" />
    <glyph glyph-name="FL00B6h" unicode="&#xb5;" horiz-adv-x="518" 
d="M174 -142v158q31 -16 75 -16h23q55 0 95 27t65.5 71.5t38 101t12.5 116.5v317h-140v-307q0 -17 -3.5 -49.5t-12.5 -64.5t-25 -56t-42 -24h-2q-15 0 -26.5 8.5t-20.5 22.5t-15.5 31.5t-10.5 36.5q-6 28 -8 54.5t-2 40.5v307h-140v-775h139z" />
    <glyph glyph-name="FL0193h" unicode="&#xb6;" horiz-adv-x="1224" 
d="M1189 333q0 -1 -0.5 -2l-0.5 -1l-15 -29h-70l47 -54q2 -2 2 -7v-5q0 -25 -24 -31l-77 14l-8 -82q-8 -15 -29 -15q-17 0 -35.5 6.5t-44.5 20.5l-73 -75l-39 -8l-46 43l-144 -69l-25 6v43l-192 -29l-22 14l8 35l-199 15v25l24 23l-123 21q-23 0 -23 26l48 34l-84 36l-9 35
l83 14l-45 48l7 42l90 -9q0 98 35 98h4l86 -28q28 35 49.5 55t41.5 28l68 -41l137 61l32 -20l-7 -21l7 -7l153 28l53 -7l-7 -41h182l16 -14q0 -36 -31 -39l154 -37v-4v-4q0 -35 -56 -40q102 -33 102 -52zM1165 323l-7 14l-125 54l78 21h9l-9 15l-177 34l63 40h-206l14 49
l-198 -27l-7 41l-16 7l-138 -62l-60 41l-83 -80q-12 -2 -16.5 -3.5t-1.5 -1.5q-27 0 -76 30l-14 -96l-98 6l6 -28l53 -62l-97 -6l129 -62l-85 -35l184 -36l-61 -40l214 -8l-25 -46l192 33l25 -27l-9 -29l153 69l69 -40l76 83l99 -29l7 98l101 -16q0 6 0.5 7.5l0.5 1.5
q0 18 -61 82zM1015 371l-16 -89l-20 3l4 92zM1004 243l-23 -19l-15 15l17 11zM945 250q-30 0 -82 61v-61l-21 -1l-2 122l77 -78l7 84l21 -5v-122zM820 250l-20 7q-10 28 -31 28q-18 0 -33 -28h-28q8 59 55 120q4 3 19 3q24 0 36 -39zM692 377l-6 -119l-33 -9l13 125z
M628 246q-31 0 -82 59v-58l-21 -4l-4 123l79 -78l3 86l25 -8v-120zM506 332q-14 -86 -52 -86q-12 -3 -22 -3q-37 0 -46 22q0 76 52 107q3 0 3.5 0.5l0.5 0.5h7q46 0 57 -41zM377 376l-4 -30q-5 1 -7 1.5t0 0.5h-7q-17 0 -36 -16q-21 -26 -21 -49q0 -25 30 -25q8 0 14 0.5
t11 1.5l2 -19q-10 -2 -16 -4t-11 -2q-40 0 -54 53q-1 1 -1 9v7q0 57 100 72zM262 374l-7 -122l-29 -9l13 125zM793 311l-16 40l-28 -40h44zM482 313q0 10 -5 15q-8 15 -26 15q-22 0 -39 -38v-8q0 -29 22 -29q5 0 13.5 2t21.5 7q13 19 13 36z" />
    <glyph glyph-name="FL00B8h" unicode="&#xb7;" 
d="M35 250v132h139v-132h-139z" />
    <glyph glyph-name="FL00B9h" unicode="&#xb8;" horiz-adv-x="173" 
d="M138 0v-163h-148v103h45v60h103z" />
    <glyph glyph-name="FL00BCh" unicode="&#xb9;" horiz-adv-x="211" 
d="M35 569h46v-70v-2q1 0 1 -1t-0.5 -1.5l-0.5 -0.5q0 -8 -1 -18t-2.5 -21t-4.5 -21t-7 -16l110 -53v316h-141v-112z" />
    <glyph glyph-name="FL00BAh" unicode="&#xba;" horiz-adv-x="302" 
d="M151 567q-14 -3 -18.5 -17.5t-4.5 -26.5q0 -5 0.5 -10t1.5 -10q2 -10 7 -19t13 -9h2q6 0 10 6t6.5 14t4 16t1.5 12q-1 5 -1 9q0 5 -1 9q-2 9 -6.5 16.5t-13.5 9.5h-1zM162 365h-20q-43 0 -67.5 30t-34.5 75q-3 13 -4 26t-1 27v2q0 26 5 54t17 50.5t33 37t53 14.5h19
q22 0 39 -8.5t29 -22.5t20 -32.5t12 -38.5q5 -25 5 -45v-15q0 -30 -6 -57.5t-19 -49t-33 -34.5t-47 -13z" />
    <glyph glyph-name="FL00BBh" unicode="&#xbb;" horiz-adv-x="315" 
d="M141 423l-106 54v-116l76 -36l-76 -36v-116l106 55v195zM280 423l-106 54v-116l76 -36l-76 -36v-116l106 55v195z" />
    <glyph glyph-name="FL00BDh" unicode="&#xbc;" horiz-adv-x="1176" 
d="M1141 323l-7 14l-125 54l78 21h9l-9 15l-177 34l63 40h-206l14 49l-198 -27l-7 41l-16 7l-138 -62l-60 41l-83 -80q-12 -2 -16.5 -3.5t-1.5 -1.5q-27 0 -76 30l-14 -96l-98 6l6 -28l53 -62l-97 -6l129 -62l-85 -35l184 -36l-61 -40l214 -8l-25 -46l192 33l25 -27l-9 -29
l153 69l69 -40l76 83l99 -29l7 98l101 -16q0 6 0.5 7.5l0.5 1.5q0 18 -61 82zM991 371l-16 -89l-20 3l4 92zM980 243l-23 -19l-15 15l17 11zM921 250q-30 0 -82 61v-61l-21 -1l-2 122l77 -78l7 84l21 -5v-122zM796 250l-20 7q-10 28 -31 28q-18 0 -33 -28h-28q8 59 55 120
q4 3 19 3q24 0 36 -39zM668 377l-6 -119l-33 -9l13 125zM604 246q-31 0 -82 59v-58l-21 -4l-4 123l79 -78l3 86l25 -8v-120zM482 332q-14 -86 -52 -86q-12 -3 -22 -3q-37 0 -46 22q0 76 52 107q3 0 3.5 0.5l0.5 0.5h7q46 0 57 -41zM353 376l-4 -30q-5 1 -7 1.5t0 0.5h-7
q-17 0 -36 -16q-21 -26 -21 -49q0 -25 30 -25q8 0 14 0.5t11 1.5l2 -19q-10 -2 -16 -4t-11 -2q-40 0 -54 53q-1 1 -1 9v7q0 57 100 72zM238 374l-7 -122l-29 -9l13 125zM769 311l-16 40l-28 -40h44zM458 313q0 10 -5 15q-8 15 -26 15q-22 0 -39 -38v-8q0 -29 22 -29
q5 0 13.5 2t21.5 7q13 19 13 36z" />
    <glyph glyph-name="FL00CAh" unicode="&#xbd;" horiz-adv-x="591" 
d="M89 0h137l242 633h-138zM502 108l50 138q3 5 3.5 11t0.5 13v11l0.5 0.5t0.5 1.5t-0.5 2t-0.5 3q-3 12 -12 20t-20 8h-147v-108h52l-47 -138q-5 -18 -5 -35v-35h179v108h-54zM35 520h46v-76l-1 -7l-4.5 -36.5t-9.5 -31.5l110 -53v316h-141v-112z" />
    <glyph glyph-name="FL00BEh" unicode="&#xbe;" horiz-adv-x="859" 
d="M824 371l-16 -89l-20 3l4 92zM813 243l-23 -19l-15 15l17 11zM754 250q-30 0 -82 61v-61l-21 -1l-2 122l77 -78l7 84l21 -5v-122zM629 250l-20 7q-10 28 -31 28q-18 0 -33 -28h-28q8 59 55 120q4 3 19 3q24 0 36 -39zM501 377l-6 -119l-33 -9l13 125zM437 246
q-31 0 -82 59v-58l-21 -4l-4 123l79 -78l3 86l25 -8v-120zM315 332q-14 -86 -52 -86q-12 -3 -22 -3q-37 0 -46 22q0 76 52 107q3 0 3.5 0.5l0.5 0.5h7q46 0 57 -41zM186 376l-4 -30q-5 1 -7 1.5t0 0.5h-7q-17 0 -36 -16q-21 -26 -21 -49q0 -25 30 -25q8 0 14 0.5t11 1.5
l2 -19q-10 -2 -16 -4t-11 -2q-40 0 -54 53q-1 1 -1 9v7q0 57 100 72zM71 374l-7 -122l-29 -9l13 125zM602 311l-16 40l-28 -40h44zM291 313q0 10 -5 15q-8 15 -26 15q-22 0 -39 -38v-8q0 -29 22 -29q5 0 13.5 2t21.5 7q13 19 13 36z" />
    <glyph glyph-name="FL00BFh" unicode="&#xbf;" horiz-adv-x="426" 
d="M290 270q13 5 19.5 12t13.5 18l3 4v118h-138v-72q-71 -20 -112.5 -69.5t-41.5 -136.5l1 -10v-14l7 -30q2 -11 4 -15q8 -20 18.5 -34t22 -23t22 -13.5t17.5 -4.5h265v130h-182q-6 5 -8.5 11t-3.5 8q-2 3 -3 10l-2 10q-1 4 -1 8q0 5 -1 10q0 18 9.5 31t24.5 23t32.5 17
t33.5 12zM326 633h-139v-132h139v132z" />
    <glyph glyph-name="FL00C0h" unicode="&#xc0;" horiz-adv-x="434" 
d="M179 692l-60 106h120l48 -106h-108zM35 -100v432q0 39 8.5 84t26.5 87t45.5 75.5t66.5 48.5q5 2 14 4t11 2h192v-633h-139v220h-87l-2 -9q1 -12 2 -29t2.5 -36.5t4 -40t6.5 -39.5q6 -26 12 -43zM255 503q-19 -9 -33 -25t-24 -36t-16 -42.5t-9 -44.5l1 -3h86v143z" />
    <glyph glyph-name="FL00C1h" unicode="&#xc1;" horiz-adv-x="434" 
d="M329 798l-60 -106h-108l48 106h120zM35 -100v432q0 39 8.5 84t26.5 87t45.5 75.5t66.5 48.5q5 2 14 4t11 2h192v-633h-139v220h-87l-2 -9q1 -12 2 -29t2.5 -36.5t4 -40t6.5 -39.5q6 -26 12 -43zM255 503q-19 -9 -33 -25t-24 -36t-16 -42.5t-9 -44.5l1 -3h86v143z" />
    <glyph glyph-name="FL00C2h" unicode="&#xc2;" horiz-adv-x="434" 
d="M35 -100v432q0 39 8.5 84t26.5 87t45.5 75.5t66.5 48.5q5 2 14 4t11 2h192v-633h-139v220h-87l-2 -9q1 -12 2 -29t2.5 -36.5t4 -40t6.5 -39.5q6 -26 12 -43zM255 503q-19 -9 -33 -25t-24 -36t-16 -42.5t-9 -44.5l1 -3h86v143zM343 798l54 -106h-116l-36 76l-36 -76h-116
l55 106h195z" />
    <glyph glyph-name="FL00C3h" unicode="&#xc3;" horiz-adv-x="434" 
d="M35 -100v432q0 39 8.5 84t26.5 87t45.5 75.5t66.5 48.5q5 2 14 4t11 2h192v-633h-139v220h-87l-2 -9q1 -12 2 -29t2.5 -36.5t4 -40t6.5 -39.5q6 -26 12 -43zM255 503q-19 -9 -33 -25t-24 -36t-16 -42.5t-9 -44.5l1 -3h86v143zM225 692l-36 76l-36 -76h-116l55 106h158
l36 -76l36 76h116l-55 -106h-158z" />
    <glyph glyph-name="FL00C4h" unicode="&#xc4;" horiz-adv-x="434" 
d="M95 692v106h116v-106h-116zM399 798v-106h-116v106h116zM35 -100v432q0 39 8.5 84t26.5 87t45.5 75.5t66.5 48.5q5 2 14 4t11 2h192v-633h-139v220h-87l-2 -9q1 -12 2 -29t2.5 -36.5t4 -40t6.5 -39.5q6 -26 12 -43zM255 503q-19 -9 -33 -25t-24 -36t-16 -42.5t-9 -44.5
l1 -3h86v143z" />
    <glyph glyph-name="FL00C5h" unicode="&#xc5;" horiz-adv-x="434" 
d="M193 798v-106h116v106h-116zM255 503l5 -8v-143h-86l-1 3q3 22 9 44.5t16 42.5t24 36t33 25zM35 332v-432l163 123q-6 17 -12 43q-4 19 -6.5 39.5t-4 40t-2.5 36.5t-2 29l2 9h87v-220h139v633h-192q-2 0 -11 -2t-14 -4q-39 -15 -66.5 -48.5t-45.5 -75.5t-26.5 -87
t-8.5 -84zM233 730v30h35v-30h-35z" />
    <glyph glyph-name="FL00C6h" unicode="&#xc6;" horiz-adv-x="651" 
d="M35 -100v432q0 39 8.5 84t26.5 87t45.5 75.5t66.5 48.5q5 2 14 4t11 2h409v-132h-217v-119h154v-132h-154v-118h217v-132h-356v220h-87l-2 -9q1 -12 2 -29t2.5 -36.5t4 -40t6.5 -39.5q6 -26 12 -43zM255 503q-19 -9 -33 -25t-24 -36t-16 -42.5t-9 -44.5l1 -3h86v143z" />
    <glyph glyph-name="FL00C7h" unicode="&#xc7;" horiz-adv-x="425" 
d="M390 501h-122q-25 -7 -42.5 -26t-29 -44t-16.5 -53t-5 -52q0 -13 2 -35t7 -47q4 -20 11 -40t17 -36t23 -26t30 -10h125v-132h-98v-163h-148v103h45v70q-58 21 -94 75t-51 124q-5 23 -7.5 47.5t-2.5 48.5v19q0 52 11.5 107t34.5 100t57 73.5t79 28.5h174v-132z" />
    <glyph glyph-name="FL00C8h" unicode="&#xc8;" horiz-adv-x="426" 
d="M179 692l-60 106h120l48 -106h-108zM35 0v633h356v-132h-217v-119h154v-132h-154v-118h217v-132h-356z" />
    <glyph glyph-name="FL00C9h" unicode="&#xc9;" horiz-adv-x="426" 
d="M307 798l-60 -106h-108l48 106h120zM35 0v633h356v-132h-217v-119h154v-132h-154v-118h217v-132h-356z" />
    <glyph glyph-name="FL00EBh" unicode="&#xca;" horiz-adv-x="426" 
d="M311 798l54 -106h-116l-36 76l-36 -76h-116l55 106h195zM35 0v633h356v-132h-217v-119h154v-132h-154v-118h217v-132h-356z" />
    <glyph glyph-name="FL00CBh" unicode="&#xcb;" horiz-adv-x="426" 
d="M61 692v106h116v-106h-116zM365 798v-106h-116v106h116zM35 0v633h356v-132h-217v-119h154v-132h-154v-118h217v-132h-356z" />
    <glyph glyph-name="FL00CCh" unicode="&#xcc;" horiz-adv-x="201" 
d="M80 692l-60 106h120l48 -106h-108zM173 633v-422q0 -12 1 -30t3 -39t5 -43t7 -41l4 -19l5 -16l-163 -123v733h138z" />
    <glyph glyph-name="FL00CDh" unicode="&#xcd;" 
d="M188 798l-60 -106h-108l48 106h120zM173 633v-422q0 -12 1 -30t3 -39t5 -43t7 -41l4 -19l5 -16l-163 -123v733h138z" />
    <glyph glyph-name="FL00CEh" unicode="&#xce;" 
d="M203 798l54 -106h-116l-36 76l-36 -76h-116l55 106h195zM173 633v-422q0 -12 1 -30t3 -39t5 -43t7 -41l4 -19l5 -16l-163 -123v733h138z" />
    <glyph glyph-name="FL00CFh" unicode="&#xcf;" 
d="M-47 692v106h116v-106h-116zM257 798v-106h-116v106h116zM173 633v-422q0 -12 1 -30t3 -39t5 -43t7 -41l4 -19l5 -16l-163 -123v733h138z" />
    <glyph glyph-name="FL00D0h" unicode="&#xd0;" horiz-adv-x="526" 
d="M35 389h57v251h183q55 0 95.5 -27t67.5 -71.5t40 -101t13 -116.5v-8q0 -53 -12.5 -107.5t-35.5 -99.5t-57 -73.5t-77 -28.5h-217v250h-57v132zM230 140h27q24 6 41.5 24.5t29.5 43t17.5 52t5.5 51.5v6q0 19 -5 51.5t-16 63.5t-29 53.5t-45 22.5h-26v-119h58v-132h-58
v-117z" />
    <glyph glyph-name="FL00D1h" unicode="&#xd1;" horiz-adv-x="460" 
d="M217 692l-36 76l-36 -76h-116l55 106h158l36 -76l36 76h116l-55 -106h-158zM35 0v633h137l115 -152v152h138v-633h-138v305l-113 151v-456h-139z" />
    <glyph glyph-name="FL00D2h" unicode="&#xd2;" horiz-adv-x="531" 
d="M231 692l-60 106h120l48 -106h-108zM287 0h-39q-42 0 -75.5 16.5t-59 44.5t-42.5 66t-26 81q-6 26 -8.5 53t-2.5 55v5q0 52 10 107.5t35 101t66 74.5t104 29h38q43 0 76.5 -16.5t57.5 -44.5t40 -64.5t24 -76.5q6 -27 8.5 -55t3.5 -55v-5q0 -60 -12 -116.5t-37.5 -101
t-65.5 -71.5t-95 -27zM265 501q-23 -6 -40 -23.5t-28 -41t-16.5 -50.5t-5.5 -51v-9q0 -14 2 -38.5t8 -50.5q4 -20 10.5 -38.5t15.5 -33.5t21.5 -24t29.5 -9h8q25 0 41.5 23t27 54.5t15 63.5t4.5 50v3q-1 15 -2.5 31.5t-5.5 34.5q-8 37 -26 69t-52 40h-7z" />
    <glyph glyph-name="FL00D3h" unicode="&#xd3;" horiz-adv-x="531" 
d="M359 798l-60 -106h-108l48 106h120zM287 0h-39q-42 0 -75.5 16.5t-59 44.5t-42.5 66t-26 81q-6 26 -8.5 53t-2.5 55v5q0 52 10 107.5t35 101t66 74.5t104 29h38q43 0 76.5 -16.5t57.5 -44.5t40 -64.5t24 -76.5q6 -27 8.5 -55t3.5 -55v-5q0 -60 -12 -116.5t-37.5 -101
t-65.5 -71.5t-95 -27zM265 501q-23 -6 -40 -23.5t-28 -41t-16.5 -50.5t-5.5 -51v-9q0 -14 2 -38.5t8 -50.5q4 -20 10.5 -38.5t15.5 -33.5t21.5 -24t29.5 -9h8q25 0 41.5 23t27 54.5t15 63.5t4.5 50v3q-1 15 -2.5 31.5t-5.5 34.5q-8 37 -26 69t-52 40h-7z" />
    <glyph glyph-name="FL00D4h" unicode="&#xd4;" horiz-adv-x="531" 
d="M363 798l54 -106h-116l-36 76l-36 -76h-116l55 106h195zM287 0h-39q-42 0 -75.5 16.5t-59 44.5t-42.5 66t-26 81q-6 26 -8.5 53t-2.5 55v5q0 52 10 107.5t35 101t66 74.5t104 29h38q43 0 76.5 -16.5t57.5 -44.5t40 -64.5t24 -76.5q6 -27 8.5 -55t3.5 -55v-5
q0 -60 -12 -116.5t-37.5 -101t-65.5 -71.5t-95 -27zM265 501q-23 -6 -40 -23.5t-28 -41t-16.5 -50.5t-5.5 -51v-9q0 -14 2 -38.5t8 -50.5q4 -20 10.5 -38.5t15.5 -33.5t21.5 -24t29.5 -9h8q25 0 41.5 23t27 54.5t15 63.5t4.5 50v3q-1 15 -2.5 31.5t-5.5 34.5q-8 37 -26 69
t-52 40h-7z" />
    <glyph glyph-name="FL00D5h" unicode="&#xd5;" horiz-adv-x="531" 
d="M253 692l-36 76l-36 -76h-116l55 106h158l36 -76l36 76h116l-55 -106h-158zM287 0h-39q-42 0 -75.5 16.5t-59 44.5t-42.5 66t-26 81q-6 26 -8.5 53t-2.5 55v5q0 52 10 107.5t35 101t66 74.5t104 29h38q43 0 76.5 -16.5t57.5 -44.5t40 -64.5t24 -76.5q6 -27 8.5 -55
t3.5 -55v-5q0 -60 -12 -116.5t-37.5 -101t-65.5 -71.5t-95 -27zM265 501q-23 -6 -40 -23.5t-28 -41t-16.5 -50.5t-5.5 -51v-9q0 -14 2 -38.5t8 -50.5q4 -20 10.5 -38.5t15.5 -33.5t21.5 -24t29.5 -9h8q25 0 41.5 23t27 54.5t15 63.5t4.5 50v3q-1 15 -2.5 31.5t-5.5 34.5
q-8 37 -26 69t-52 40h-7z" />
    <glyph glyph-name="FL00D6h" unicode="&#xd6;" horiz-adv-x="531" 
d="M113 692v106h116v-106h-116zM417 798v-106h-116v106h116zM287 0h-39q-42 0 -75.5 16.5t-59 44.5t-42.5 66t-26 81q-6 26 -8.5 53t-2.5 55v5q0 52 10 107.5t35 101t66 74.5t104 29h38q43 0 76.5 -16.5t57.5 -44.5t40 -64.5t24 -76.5q6 -27 8.5 -55t3.5 -55v-5
q0 -60 -12 -116.5t-37.5 -101t-65.5 -71.5t-95 -27zM265 501q-23 -6 -40 -23.5t-28 -41t-16.5 -50.5t-5.5 -51v-9q0 -14 2 -38.5t8 -50.5q4 -20 10.5 -38.5t15.5 -33.5t21.5 -24t29.5 -9h8q25 0 41.5 23t27 54.5t15 63.5t4.5 50v3q-1 15 -2.5 31.5t-5.5 34.5q-8 37 -26 69
t-52 40h-7z" />
    <glyph glyph-name="FL00D7h" unicode="&#xd7;" horiz-adv-x="422" 
d="M128 492l83 -83l83 83l93 -93l-83 -83l83 -83l-93 -93l-83 83l-83 -83l-93 93l83 83l-83 83z" />
    <glyph glyph-name="FL00D8h" unicode="&#xd8;" horiz-adv-x="531" 
d="M78 0l27 70q-22 28 -37 63t-23 75q-6 26 -8.5 53t-2.5 55v5q0 52 10 107.5t35 101t66 74.5t104 29h208l-28 -72q21 -28 35 -62.5t22 -71.5q6 -27 8.5 -53.5t2.5 -52.5v-5q0 -60 -12 -116.5t-37.5 -101t-65.5 -71.5t-95 -27h-209zM265 501q-24 -6 -41 -24.5t-28.5 -43.5
t-16.5 -52.5t-5 -51.5v-3q0 -11 1.5 -26.5l3.5 -34.5l90 236h-4zM354 365l-89 -233h5q25 0 41.5 23t26.5 54t14.5 63.5t4.5 50.5v3q0 18 -3 39z" />
    <glyph glyph-name="FL00D9h" unicode="&#xd9;" horiz-adv-x="518" 
d="M272 0q55 0 95 27t65.5 71.5t38 101t12.5 116.5v317h-140v-307q0 -17 -3.5 -49.5t-12.5 -64.5t-25 -56t-42 -24h-2q-15 0 -26.5 8.5t-20.5 22.5t-15.5 31.5t-10.5 36.5q-6 28 -8 54.5t-2 40.5v307h-140v-317q0 -28 2.5 -55t8.5 -53q9 -43 26 -81t42.5 -66t59 -44.5
t75.5 -16.5h23zM333 692l-48 106h-120l60 -106h108z" />
    <glyph glyph-name="FL00DAh" unicode="&#xda;" horiz-adv-x="518" 
d="M233 798l-48 -106h108l60 106h-120zM269 0q55 0 95.5 27t66.5 71.5t39 101t13 116.5v317h-140v-307q0 -17 -3.5 -49.5t-12.5 -64.5t-25 -56t-42 -24h-2q-15 0 -26.5 8.5t-20.5 22.5t-15.5 31.5t-10.5 36.5q-6 28 -8 54.5t-2 40.5v307h-140v-317q0 -57 12 -111
q9 -43 25.5 -80.5t41.5 -65t57.5 -43.5t74.5 -16h23z" />
    <glyph glyph-name="FL00DBh" unicode="&#xdb;" horiz-adv-x="518" 
d="M162 798l-55 -106h116l36 76l36 -76h116l-54 106h-195zM272 0q55 0 95 27t65.5 71.5t38 101t12.5 116.5v317h-140v-307q0 -17 -3.5 -49.5t-12.5 -64.5t-25 -56t-42 -24h-2q-15 0 -26.5 8.5t-20.5 22.5t-15.5 31.5t-10.5 36.5q-6 28 -8 54.5t-2 40.5v307h-140v-317
q0 -28 2.5 -55t8.5 -53q9 -43 26 -81t42.5 -66t59 -44.5t75.5 -16.5h23z" />
    <glyph glyph-name="FL00DCh" unicode="&#xdc;" horiz-adv-x="518" 
d="M272 0q55 0 95 27t65.5 71.5t38 101t12.5 116.5v317h-140v-307q0 -17 -3.5 -49.5t-12.5 -64.5t-25 -56t-42 -24h-2q-15 0 -26.5 8.5t-20.5 22.5t-15.5 31.5t-10.5 36.5q-6 28 -8 54.5t-2 40.5v307h-140v-317q0 -28 2.5 -55t8.5 -53q9 -43 26 -81t42.5 -66t59 -44.5
t75.5 -16.5h23zM295 798v-106h116v106h-116zM223 692v106h-116v-106h116z" />
    <glyph glyph-name="FL00DDh" unicode="&#xdd;" horiz-adv-x="518" 
d="M483 566q0 -53 -9 -103t-28.5 -92t-49.5 -72t-72 -42v-46q0 -12 1 -31t3 -40t5 -43t7 -41l4 -18q1 -2 2 -6t3 -9l-162 -123v360q-57 20 -91.5 73t-49.5 124q-6 26 -8.5 53.5t-2.5 55.5v67h140v-57q0 -14 2 -40.5t8 -54.5q4 -19 10 -36.5t15 -31.5t21 -22.5t27 -8.5h2
q26 0 42 24t25 56t12 64.5t4 49.5v57h140v-67zM353 798l-60 -106h-108l48 106h120z" />
    <glyph glyph-name="FL00DEh" unicode="&#xde;" horiz-adv-x="441" 
d="M173 633v-114h143q7 0 17.5 -5.5t21.5 -15.5t22 -25.5t19 -34.5q2 -2 2 -4t1 -4l4 -22l4 -16v-13q0 -49 -17 -89.5t-48 -69t-74 -44.5t-95 -16v-9q0 -17 1 -34t6 -35q6 -26 18 -59l-163 -123v733h138zM173 232l2 -2q34 10 55 35.5t22 60.5q-1 5 -1 9t-1 8l-2 10
q-2 8 -3 11q-1 2 -3.5 8t-8.5 11h-60v-151z" />
    <glyph glyph-name="FL00DFh" unicode="&#xdf;" horiz-adv-x="525" 
d="M234 633q-55 0 -93 -27t-61.5 -71.5t-34 -101t-10.5 -116.5v-317h140v307q0 16 3 49t11 65.5t21 57t33 24.5h74q5 -5 8 -11l4 -8l5 -18q1 -5 1.5 -10t0.5 -10q-1 -35 -21.5 -53.5t-54.5 -28.5h-3v-95l2 2q29 -8 49.5 -23t25.5 -41l2 -13v-7q0 -20 -7 -37q-2 -2 -4.5 -8.5
t-7.5 -11.5h-60v-130h143q6 0 16.5 4.5t22 13.5t22.5 23t19 34q6 15 8.5 30t2.5 29q0 29 -6 59q-18 85 -94 123q100 50 100 183q0 14 -5 36l-2 11q-2 9 -4 12q-8 19 -19 33.5t-22 23.5t-21.5 13.5t-17.5 4.5h-166z" />
    <glyph glyph-name="FL00E0h" unicode="&#xe0;" horiz-adv-x="434" 
d="M179 692l-60 106h120l48 -106h-108zM35 -100v432q0 39 8.5 84t26.5 87t45.5 75.5t66.5 48.5q5 2 14 4t11 2h192v-633h-139v220h-87l-2 -9q1 -12 2 -29t2.5 -36.5t4 -40t6.5 -39.5q6 -26 12 -43zM255 503q-19 -9 -33 -25t-24 -36t-16 -42.5t-9 -44.5l1 -3h86v143z" />
    <glyph glyph-name="FL00E1h" unicode="&#xe1;" horiz-adv-x="434" 
d="M329 798l-60 -106h-108l48 106h120zM35 -100v432q0 39 8.5 84t26.5 87t45.5 75.5t66.5 48.5q5 2 14 4t11 2h192v-633h-139v220h-87l-2 -9q1 -12 2 -29t2.5 -36.5t4 -40t6.5 -39.5q6 -26 12 -43zM255 503q-19 -9 -33 -25t-24 -36t-16 -42.5t-9 -44.5l1 -3h86v143z" />
    <glyph glyph-name="FL00E2h" unicode="&#xe2;" horiz-adv-x="434" 
d="M35 -100v432q0 39 8.5 84t26.5 87t45.5 75.5t66.5 48.5q5 2 14 4t11 2h192v-633h-139v220h-87l-2 -9q1 -12 2 -29t2.5 -36.5t4 -40t6.5 -39.5q6 -26 12 -43zM255 503q-19 -9 -33 -25t-24 -36t-16 -42.5t-9 -44.5l1 -3h86v143zM343 798l54 -106h-116l-36 76l-36 -76h-116
l55 106h195z" />
    <glyph glyph-name="FL00E3h" unicode="&#xe3;" horiz-adv-x="434" 
d="M35 -100v432q0 39 8.5 84t26.5 87t45.5 75.5t66.5 48.5q5 2 14 4t11 2h192v-633h-139v220h-87l-2 -9q1 -12 2 -29t2.5 -36.5t4 -40t6.5 -39.5q6 -26 12 -43zM255 503q-19 -9 -33 -25t-24 -36t-16 -42.5t-9 -44.5l1 -3h86v143zM225 692l-36 76l-36 -76h-116l55 106h158
l36 -76l36 76h116l-55 -106h-158z" />
    <glyph glyph-name="FL00E4h" unicode="&#xe4;" horiz-adv-x="434" 
d="M95 692v106h116v-106h-116zM399 798v-106h-116v106h116zM35 -100v432q0 39 8.5 84t26.5 87t45.5 75.5t66.5 48.5q5 2 14 4t11 2h192v-633h-139v220h-87l-2 -9q1 -12 2 -29t2.5 -36.5t4 -40t6.5 -39.5q6 -26 12 -43zM255 503q-19 -9 -33 -25t-24 -36t-16 -42.5t-9 -44.5
l1 -3h86v143z" />
    <glyph glyph-name="FL00E5h" unicode="&#xe5;" horiz-adv-x="434" 
d="M193 798v-106h116v106h-116zM255 503l5 -8v-143h-86l-1 3q3 22 9 44.5t16 42.5t24 36t33 25zM35 332v-432l163 123q-6 17 -12 43q-4 19 -6.5 39.5t-4 40t-2.5 36.5t-2 29l2 9h87v-220h139v633h-192q-2 0 -11 -2t-14 -4q-39 -15 -66.5 -48.5t-45.5 -75.5t-26.5 -87
t-8.5 -84zM233 730v30h35v-30h-35z" />
    <glyph glyph-name="FL00E6h" unicode="&#xe6;" horiz-adv-x="651" 
d="M35 -100v432q0 39 8.5 84t26.5 87t45.5 75.5t66.5 48.5q5 2 14 4t11 2h409v-132h-217v-119h154v-132h-154v-118h217v-132h-356v220h-87l-2 -9q1 -12 2 -29t2.5 -36.5t4 -40t6.5 -39.5q6 -26 12 -43zM255 503q-19 -9 -33 -25t-24 -36t-16 -42.5t-9 -44.5l1 -3h86v143z" />
    <glyph glyph-name="FL00E7h" unicode="&#xe7;" horiz-adv-x="425" 
d="M390 501h-122q-25 -7 -42.5 -26t-29 -44t-16.5 -53t-5 -52q0 -13 2 -35t7 -47q4 -20 11 -40t17 -36t23 -26t30 -10h125v-132h-98v-163h-148v103h45v70q-58 21 -94 75t-51 124q-5 23 -7.5 47.5t-2.5 48.5v19q0 52 11.5 107t34.5 100t57 73.5t79 28.5h174v-132z" />
    <glyph glyph-name="FL00E8h" unicode="&#xe8;" horiz-adv-x="426" 
d="M179 692l-60 106h120l48 -106h-108zM35 0v633h356v-132h-217v-119h154v-132h-154v-118h217v-132h-356z" />
    <glyph glyph-name="FL00E9h" unicode="&#xe9;" horiz-adv-x="426" 
d="M307 798l-60 -106h-108l48 106h120zM35 0v633h356v-132h-217v-119h154v-132h-154v-118h217v-132h-356z" />
    <glyph glyph-name="FL00EAh" unicode="&#xea;" horiz-adv-x="426" 
d="M311 798l54 -106h-116l-36 76l-36 -76h-116l55 106h195zM35 0v633h356v-132h-217v-119h154v-132h-154v-118h217v-132h-356z" />
    <glyph glyph-name="FL00ECh" unicode="&#xeb;" horiz-adv-x="426" 
d="M61 692v106h116v-106h-116zM365 798v-106h-116v106h116zM35 0v633h356v-132h-217v-119h154v-132h-154v-118h217v-132h-356z" />
    <glyph glyph-name="FL00EDh" unicode="&#xec;" 
d="M80 692l-60 106h120l48 -106h-108zM173 633v-422q0 -12 1 -30t3 -39t5 -43t7 -41l4 -19l5 -16l-163 -123v733h138z" />
    <glyph glyph-name="FL00EEh" unicode="&#xed;" 
d="M188 798l-60 -106h-108l48 106h120zM173 633v-422q0 -12 1 -30t3 -39t5 -43t7 -41l4 -19l5 -16l-163 -123v733h138z" />
    <glyph glyph-name="FL00EFh" unicode="&#xee;" 
d="M203 798l54 -106h-116l-36 76l-36 -76h-116l55 106h195zM173 633v-422q0 -12 1 -30t3 -39t5 -43t7 -41l4 -19l5 -16l-163 -123v733h138z" />
    <glyph glyph-name="FL00F0h" unicode="&#xef;" 
d="M-47 692v106h116v-106h-116zM257 798v-106h-116v106h116zM173 633v-422q0 -12 1 -30t3 -39t5 -43t7 -41l4 -19l5 -16l-163 -123v733h138z" />
    <glyph glyph-name="FL00F7h" unicode="&#xf0;" horiz-adv-x="468" 
d="M35 0h183q55 0 95.5 27t67.5 71.5t40 101t13 116.5v5q0 53 -11.5 108.5t-34.5 100.5t-57 74t-79 29h-13v76h-132v-76h-72v-132h72v-75h132v51q18 -18 30 -43.5t18 -51.5h-252v-382zM285 250q-5 -21 -11.5 -43t-16.5 -39t-23 -28t-31 -11h-30v121h112z" />
    <glyph glyph-name="FL00F1h" unicode="&#xf1;" horiz-adv-x="460" 
d="M217 692l-36 76l-36 -76h-116l55 106h158l36 -76l36 76h116l-55 -106h-158zM35 0v633h137l115 -152v152h138v-633h-138v305l-113 151v-456h-139z" />
    <glyph glyph-name="FL00F2h" unicode="&#xf2;" horiz-adv-x="531" 
d="M231 692l-60 106h120l48 -106h-108zM287 0h-39q-42 0 -75.5 16.5t-59 44.5t-42.5 66t-26 81q-6 26 -8.5 53t-2.5 55v5q0 52 10 107.5t35 101t66 74.5t104 29h38q43 0 76.5 -16.5t57.5 -44.5t40 -64.5t24 -76.5q6 -27 8.5 -55t3.5 -55v-5q0 -60 -12 -116.5t-37.5 -101
t-65.5 -71.5t-95 -27zM265 501q-23 -6 -40 -23.5t-28 -41t-16.5 -50.5t-5.5 -51v-9q0 -14 2 -38.5t8 -50.5q4 -20 10.5 -38.5t15.5 -33.5t21.5 -24t29.5 -9h8q25 0 41.5 23t27 54.5t15 63.5t4.5 50v3q-1 15 -2.5 31.5t-5.5 34.5q-8 37 -26 69t-52 40h-7z" />
    <glyph glyph-name="FL00F3h" unicode="&#xf3;" horiz-adv-x="531" 
d="M359 798l-60 -106h-108l48 106h120zM287 0h-39q-42 0 -75.5 16.5t-59 44.5t-42.5 66t-26 81q-6 26 -8.5 53t-2.5 55v5q0 52 10 107.5t35 101t66 74.5t104 29h38q43 0 76.5 -16.5t57.5 -44.5t40 -64.5t24 -76.5q6 -27 8.5 -55t3.5 -55v-5q0 -60 -12 -116.5t-37.5 -101
t-65.5 -71.5t-95 -27zM265 501q-23 -6 -40 -23.5t-28 -41t-16.5 -50.5t-5.5 -51v-9q0 -14 2 -38.5t8 -50.5q4 -20 10.5 -38.5t15.5 -33.5t21.5 -24t29.5 -9h8q25 0 41.5 23t27 54.5t15 63.5t4.5 50v3q-1 15 -2.5 31.5t-5.5 34.5q-8 37 -26 69t-52 40h-7z" />
    <glyph glyph-name="FL00F4h" unicode="&#xf4;" horiz-adv-x="531" 
d="M363 798l54 -106h-116l-36 76l-36 -76h-116l55 106h195zM287 0h-39q-42 0 -75.5 16.5t-59 44.5t-42.5 66t-26 81q-6 26 -8.5 53t-2.5 55v5q0 52 10 107.5t35 101t66 74.5t104 29h38q43 0 76.5 -16.5t57.5 -44.5t40 -64.5t24 -76.5q6 -27 8.5 -55t3.5 -55v-5
q0 -60 -12 -116.5t-37.5 -101t-65.5 -71.5t-95 -27zM265 501q-23 -6 -40 -23.5t-28 -41t-16.5 -50.5t-5.5 -51v-9q0 -14 2 -38.5t8 -50.5q4 -20 10.5 -38.5t15.5 -33.5t21.5 -24t29.5 -9h8q25 0 41.5 23t27 54.5t15 63.5t4.5 50v3q-1 15 -2.5 31.5t-5.5 34.5q-8 37 -26 69
t-52 40h-7z" />
    <glyph glyph-name="FL00F5h" unicode="&#xf5;" horiz-adv-x="531" 
d="M253 692l-36 76l-36 -76h-116l55 106h158l36 -76l36 76h116l-55 -106h-158zM287 0h-39q-42 0 -75.5 16.5t-59 44.5t-42.5 66t-26 81q-6 26 -8.5 53t-2.5 55v5q0 52 10 107.5t35 101t66 74.5t104 29h38q43 0 76.5 -16.5t57.5 -44.5t40 -64.5t24 -76.5q6 -27 8.5 -55
t3.5 -55v-5q0 -60 -12 -116.5t-37.5 -101t-65.5 -71.5t-95 -27zM265 501q-23 -6 -40 -23.5t-28 -41t-16.5 -50.5t-5.5 -51v-9q0 -14 2 -38.5t8 -50.5q4 -20 10.5 -38.5t15.5 -33.5t21.5 -24t29.5 -9h8q25 0 41.5 23t27 54.5t15 63.5t4.5 50v3q-1 15 -2.5 31.5t-5.5 34.5
q-8 37 -26 69t-52 40h-7z" />
    <glyph glyph-name="FL00F6h" unicode="&#xf6;" horiz-adv-x="531" 
d="M113 692v106h116v-106h-116zM417 798v-106h-116v106h116zM287 0h-39q-42 0 -75.5 16.5t-59 44.5t-42.5 66t-26 81q-6 26 -8.5 53t-2.5 55v5q0 52 10 107.5t35 101t66 74.5t104 29h38q43 0 76.5 -16.5t57.5 -44.5t40 -64.5t24 -76.5q6 -27 8.5 -55t3.5 -55v-5
q0 -60 -12 -116.5t-37.5 -101t-65.5 -71.5t-95 -27zM265 501q-23 -6 -40 -23.5t-28 -41t-16.5 -50.5t-5.5 -51v-9q0 -14 2 -38.5t8 -50.5q4 -20 10.5 -38.5t15.5 -33.5t21.5 -24t29.5 -9h8q25 0 41.5 23t27 54.5t15 63.5t4.5 50v3q-1 15 -2.5 31.5t-5.5 34.5q-8 37 -26 69
t-52 40h-7z" />
    <glyph glyph-name="FL0100h" unicode="&#xf7;" horiz-adv-x="486" 
d="M173 83v132h139v-132h-139zM173 417v132h139v-132h-139zM35 382h416v-132h-416v132z" />
    <glyph glyph-name="FL00F8h" unicode="&#xf8;" horiz-adv-x="531" 
d="M248 0q-42 0 -75.5 16.5t-59 44.5t-42.5 66t-26 81q-6 26 -8.5 53t-2.5 55v5q0 52 10 107.5t35 101t66 74.5t104 29h38q43 0 76.5 -16.5t57.5 -44.5t40 -64.5t24 -76.5q6 -27 8.5 -55t3.5 -55v-5q0 -60 -12 -116.5t-37.5 -101t-65.5 -71.5t-95 -27h-39zM354 367l-93 -235
h9q25 0 41.5 23t26.5 54t14.5 63.5t4.5 50.5v3q0 18 -3 41zM265 501q-24 -6 -41 -24.5t-28.5 -43.5t-16.5 -52.5t-5 -51.5v-9q0 -10 1 -22.5t3 -27.5l91 231h-4z" />
    <glyph glyph-name="FL00F9h" unicode="&#xf9;" horiz-adv-x="518" 
d="M272 0q55 0 95 27t65.5 71.5t38 101t12.5 116.5v317h-140v-307q0 -17 -3.5 -49.5t-12.5 -64.5t-25 -56t-42 -24h-2q-15 0 -26.5 8.5t-20.5 22.5t-15.5 31.5t-10.5 36.5q-6 28 -8 54.5t-2 40.5v307h-140v-317q0 -28 2.5 -55t8.5 -53q9 -43 26 -81t42.5 -66t59 -44.5
t75.5 -16.5h23zM333 692l-48 106h-120l60 -106h108z" />
    <glyph glyph-name="FL00FAh" unicode="&#xfa;" horiz-adv-x="518" 
d="M233 798l-48 -106h108l60 106h-120zM269 0q55 0 95.5 27t66.5 71.5t39 101t13 116.5v317h-140v-307q0 -17 -3.5 -49.5t-12.5 -64.5t-25 -56t-42 -24h-2q-15 0 -26.5 8.5t-20.5 22.5t-15.5 31.5t-10.5 36.5q-6 28 -8 54.5t-2 40.5v307h-140v-317q0 -57 12 -111
q9 -43 25.5 -80.5t41.5 -65t57.5 -43.5t74.5 -16h23z" />
    <glyph glyph-name="FL00FBh" unicode="&#xfb;" horiz-adv-x="518" 
d="M162 798l-55 -106h116l36 76l36 -76h116l-54 106h-195zM272 0q55 0 95 27t65.5 71.5t38 101t12.5 116.5v317h-140v-307q0 -17 -3.5 -49.5t-12.5 -64.5t-25 -56t-42 -24h-2q-15 0 -26.5 8.5t-20.5 22.5t-15.5 31.5t-10.5 36.5q-6 28 -8 54.5t-2 40.5v307h-140v-317
q0 -28 2.5 -55t8.5 -53q9 -43 26 -81t42.5 -66t59 -44.5t75.5 -16.5h23z" />
    <glyph glyph-name="FL00FCh" unicode="&#xfc;" horiz-adv-x="518" 
d="M272 0q55 0 95 27t65.5 71.5t38 101t12.5 116.5v317h-140v-307q0 -17 -3.5 -49.5t-12.5 -64.5t-25 -56t-42 -24h-2q-15 0 -26.5 8.5t-20.5 22.5t-15.5 31.5t-10.5 36.5q-6 28 -8 54.5t-2 40.5v307h-140v-317q0 -28 2.5 -55t8.5 -53q9 -43 26 -81t42.5 -66t59 -44.5
t75.5 -16.5h23zM295 798v-106h116v106h-116zM223 692v106h-116v-106h116z" />
    <glyph glyph-name="FL00FDh" unicode="&#xfd;" horiz-adv-x="518" 
d="M483 566q0 -53 -9 -103t-28.5 -92t-49.5 -72t-72 -42v-46q0 -12 1 -31t3 -40t5 -43t7 -41l4 -18q1 -2 2 -6t3 -9l-162 -123v360q-57 20 -91.5 73t-49.5 124q-6 26 -8.5 53.5t-2.5 55.5v67h140v-57q0 -14 2 -40.5t8 -54.5q4 -19 10 -36.5t15 -31.5t21 -22.5t27 -8.5h2
q26 0 42 24t25 56t12 64.5t4 49.5v57h140v-67zM353 798l-60 -106h-108l48 106h120z" />
    <glyph glyph-name="FL00FEh" unicode="&#xfe;" horiz-adv-x="441" 
d="M173 633v-114h143q7 0 17.5 -5.5t21.5 -15.5t22 -25.5t19 -34.5q2 -2 2 -4t1 -4l4 -22l4 -16v-13q0 -49 -17 -89.5t-48 -69t-74 -44.5t-95 -16v-9q0 -17 1 -34t6 -35q6 -26 18 -59l-163 -123v733h138zM173 232l2 -2q34 10 55 35.5t22 60.5q-1 5 -1 9t-1 8l-2 10
q-2 8 -3 11q-1 2 -3.5 8t-8.5 11h-60v-151z" />
    <glyph glyph-name="FL00FFh" unicode="&#xff;" horiz-adv-x="518" 
d="M483 566q0 -53 -9 -103t-28.5 -92t-49.5 -72t-72 -42v-46q0 -12 1 -31t3 -40t5 -43t7 -41l4 -18q1 -2 2 -6t3 -9l-162 -123v360q-57 20 -91.5 73t-49.5 124q-6 26 -8.5 53.5t-2.5 55.5v67h140v-57q0 -14 2 -40.5t8 -54.5q4 -19 10 -36.5t15 -31.5t21 -22.5t27 -8.5h2
q26 0 42 24t25 56t12 64.5t4 49.5v57h140v-67zM107 692v106h116v-106h-116zM411 798v-106h-116v106h116z" />
    </font>
</defs>
</svg>
