<?xml version="1.0" standalone="no"?>
<!DOCTYPE svg PUBLIC "-//W3C//DTD SVG 1.1//EN" "http://www.w3.org/Graphics/SVG/1.1/DTD/svg11.dtd" >
<svg xmlns="http://www.w3.org/2000/svg">
<metadata></metadata>
<defs>
<font id="walibi0615bold" horiz-adv-x="808" >
<font-face units-per-em="2048" ascent="1638" descent="-410" />
<missing-glyph horiz-adv-x="737" />
<glyph horiz-adv-x="0" />
<glyph unicode="&#xd;" horiz-adv-x="682" />
<glyph unicode=" "  horiz-adv-x="737" />
<glyph unicode="&#x09;" horiz-adv-x="737" />
<glyph unicode="&#xa0;" horiz-adv-x="737" />
<glyph unicode="!" d="M123 0v313l563 45v-358h-563zM133 1540l545 41l-41 -1151h-463z" />
<glyph unicode="&#x22;" horiz-adv-x="1228" d="M123 903l20 621l420 45l-225 -707zM614 903l21 641l481 45l-225 -727z" />
<glyph unicode="#" horiz-adv-x="1505" d="M123 205v303l147 12v271l-147 -13v303l147 13v419l361 41v-432l254 21v370l360 41v-383l137 13v-303l-137 -13v-270l137 12v-303l-137 -12v-420l-360 -41v432l-254 -20v-371l-361 -41v383zM631 549l254 20v271l-254 -21v-270z" />
<glyph unicode="$" horiz-adv-x="1390" d="M61 117l127 418q20 -18 59.5 -46t151 -74t215.5 -46q51 0 97.5 22.5t46.5 69.5q0 12 -4 23.5t-8.5 18.5t-14.5 14t-16 10t-20.5 7.5t-19.5 6.5t-21.5 5t-20.5 3l-113 20q-178 31 -291.5 142.5t-113.5 289.5q0 205 127 346.5t323 196.5v137l340 41v-153q217 -20 373 -90 l-86 -416q-18 12 -53 31.5t-137.5 52.5t-202.5 33q-45 0 -83 -19.5t-38 -62.5q0 -12 3 -21.5t12 -16.5l16 -12q6 -5 20 -9.5t20.5 -6.5t21.5 -6t20 -4l127 -31q412 -98 411 -463q0 -199 -117.5 -332t-306.5 -188v-151l-340 -41v161q-131 8 -257 43t-185 66z" />
<glyph unicode="%" horiz-adv-x="1871" d="M61 1212q0 158 111 257.5t270.5 99.5t270 -99.5t110.5 -257.5q0 -162 -109.5 -258t-271.5 -96q-164 0 -272.5 96t-108.5 258zM287 0l936 1569l315 -94l-936 -1569zM340 1208q0 -74 46 -120t116 -46q72 0 118 46.5t46 119.5q0 70 -45.5 119t-118.5 49q-72 0 -117 -49 t-45 -119zM1049 330q0 158 110.5 257t270 99t270 -99.5t110.5 -256.5q0 -162 -109.5 -258.5t-270.5 -96.5q-164 0 -272.5 96.5t-108.5 258.5zM1327 326q0 -74 46 -120t116 -46q72 0 118 46t46 120q0 70 -45 119t-119 49q-72 0 -117 -49t-45 -119z" />
<glyph unicode="&#x26;" horiz-adv-x="1814" d="M61 442q0 244 252 369q63 33 117 45q-14 14 -35.5 39t-57.5 98.5t-36 143.5q0 180 166 308t399 128q238 0 399.5 -124t161.5 -306q0 -141 -85 -240.5t-218 -159.5q25 -25 76 -68l76 -67q156 121 254 236l217 -361l-184 -147l221 -176l-395 -283l-215 229q-6 -6 -19.5 -15 t-58.5 -32.5t-96.5 -42t-131.5 -33t-163 -14.5q-266 0 -455 138t-189 335zM590 479q0 -51 39 -86t104 -35q27 0 51.5 5.5t63.5 19.5t51 18q-109 90 -213 189q-96 -50 -96 -111zM805 1135q0 -31 20.5 -62t40.5 -47l21 -16l27 16q17 10 45 40t28 56q0 51 -26.5 81t-65.5 30 t-64.5 -27.5t-25.5 -70.5z" />
<glyph unicode="'" horiz-adv-x="765" d="M113 903l20 641l563 45l-225 -727z" />
<glyph unicode="(" horiz-adv-x="788" d="M113 635q0 135 26.5 285.5t64.5 271.5t76.5 222.5t65.5 156.5l27 55l293 -41q-102 -530 -103 -950q0 -186 25.5 -424t50.5 -383l27 -143l-293 -41q-10 20 -27.5 58t-62.5 151.5t-80 226.5t-62.5 266.5t-27.5 288.5z" />
<glyph unicode=")" horiz-adv-x="788" d="M123 -315q102 530 102 950q0 186 -25.5 423.5t-52.5 383.5l-24 143l293 41q10 -20 27.5 -58t62.5 -151.5t80 -226.5t62.5 -266.5t27.5 -288.5q0 -213 -65.5 -461t-131.5 -389l-63 -141z" />
<glyph unicode="*" horiz-adv-x="1216" d="M61 1210l179 310l231 -205l-43 327h328l-4 -274l221 152l182 -312l-227 -106l227 -109l-162 -278l-239 159l32 -286l-356 2l45 297l-233 -203l-160 279l278 139z" />
<glyph unicode="+" horiz-adv-x="1146" d="M123 606v379l246 10v269h428l-13 -248l240 12v-422h-260l-10 -244h-385v244h-246z" />
<glyph unicode="," horiz-adv-x="798" d="M113 -160l20 641l563 45l-225 -727z" />
<glyph unicode="-" horiz-adv-x="890" d="M123 602v385l645 45v-430h-645z" />
<glyph unicode="." d="M123 0v477l563 45v-522h-563z" />
<glyph unicode="/" horiz-adv-x="827" d="M0 -168l487 1819l340 -49l-487 -1819z" />
<glyph unicode="0" horiz-adv-x="1597" d="M61 786q0 340 199 561.5t539 221.5t538.5 -221.5t198.5 -561.5q0 -358 -194.5 -584.5t-542.5 -226.5t-543 226.5t-195 584.5zM645 776q0 -174 59.5 -257t155.5 -83t155.5 83t59.5 257q0 164 -59.5 241t-155.5 77t-155.5 -77t-59.5 -241z" />
<glyph unicode="1" horiz-adv-x="917" d="M0 1053v385l795 168v-1586l-557 -61l20 1131z" />
<glyph unicode="2" horiz-adv-x="1288" d="M0 1432q100 59 250.5 98t292.5 39q168 0 314.5 -54.5t246.5 -177.5t100 -293q0 -78 -26.5 -156.5t-68.5 -141t-93 -119t-103.5 -98.5t-94.5 -72.5t-68 -46.5l-27 -15v-16l504 55v-434h-1174v332q25 12 64 33.5t138 90t176 141.5t139.5 180.5t62.5 209.5q0 76 -57.5 130 t-139.5 54q-74 0 -155.5 -17t-126.5 -36l-45 -16z" />
<glyph unicode="3" horiz-adv-x="1210" d="M0 131l102 328q143 -86 304 -86q115 0 174 44t59 111q0 86 -84 141.5t-244 55.5v172q287 -2 287 154q0 55 -49 89t-148 34q-139 0 -272 -56l-94 314q25 16 67.5 38.5t173 60.5t252.5 38q229 0 392 -130t163 -313q0 -96 -51 -179t-139 -120v-12q119 -31 187.5 -127 t68.5 -221q0 -215 -181.5 -353.5t-475.5 -138.5q-266 0 -469 140z" />
<glyph unicode="4" horiz-adv-x="1589" d="M49 309v389l674 885l623 -39v-796l194 14v-453h-209v-309l-524 -41v350h-758zM561 698l266 21l4 360h-12l-258 -372v-9z" />
<glyph unicode="5" horiz-adv-x="1294" d="M0 100l123 398q14 -12 39.5 -29.5t98.5 -47.5t138 -30q117 0 195 42t78 112q0 57 -46 94t-97.5 48t-104.5 11q-78 0 -165 -7t-136 -13l-47 -6l33 872l1030 41v-452l-641 61l-23 -219h14q41 41 216 41q219 0 373.5 -134t154.5 -350q0 -135 -68.5 -245.5t-179.5 -176 t-237.5 -100.5t-253.5 -35q-131 0 -255 31t-182 64z" />
<glyph unicode="6" horiz-adv-x="1589" d="M61 629q0 293 263 561l407 436l674 -82l-494 -434l2 -12q76 23 154 22q199 0 330 -156.5t131 -359.5q0 -197 -103.5 -342t-266.5 -216t-355 -71q-197 0 -363 75t-272.5 226.5t-106.5 352.5zM561 600q0 -82 54.5 -136t136.5 -54q80 0 136 51t56 131q0 84 -57.5 142.5 t-138.5 58.5q-78 0 -132.5 -58.5t-54.5 -134.5z" />
<glyph unicode="7" horiz-adv-x="1351" d="M0 1049v495h1352v-239l-760 -1358l-572 73l676 1049l-8 12z" />
<glyph unicode="8" horiz-adv-x="1531" d="M61 442q0 127 78 221.5t201 124.5v15q-104 31 -166.5 111.5t-62.5 187.5q0 121 62.5 215t162.5 146.5t209.5 79t220.5 26.5t220.5 -26.5t209.5 -79t162.5 -146.5t62.5 -215q0 -106 -62.5 -187t-166.5 -112v-15q123 -31 200.5 -125t77.5 -221q0 -129 -69.5 -225t-180 -145 t-225 -73t-229.5 -24t-229.5 24t-225 73t-180.5 145t-70 225zM600 520q0 -82 55.5 -138t133 -56t132 56t54.5 138q0 76 -57.5 128t-129.5 52q-74 0 -131 -53t-57 -127zM645 1044q0 -59 43 -100t100.5 -41t100.5 41t43 100q0 63 -41 106.5t-102.5 43.5t-102.5 -43.5 t-41 -106.5z" />
<glyph unicode="9" horiz-adv-x="1589" d="M61 942q0 197 103.5 342.5t266.5 216t355 70.5q197 0 363 -75t272.5 -226.5t106.5 -351.5q0 -295 -262 -562l-387 -436l-695 82l494 434l-2 13q-76 -23 -154 -23q-199 0 -330 156.5t-131 359.5zM645 954q0 -84 57.5 -142t139.5 -58q78 0 132 58t54 134q0 82 -54 136.5 t-136 54.5q-80 0 -136.5 -51.5t-56.5 -131.5z" />
<glyph unicode=":" d="M123 0v477l563 45v-522h-563zM123 614v478l563 45v-523h-563z" />
<glyph unicode=";" horiz-adv-x="804" d="M113 -160l20 641l563 45l-225 -727zM123 614v478l563 45v-523h-563z" />
<glyph unicode="&#x3c;" horiz-adv-x="813" d="M123 715l379 383l188 -35l-188 -348l188 -353l-188 -57z" />
<glyph unicode="=" horiz-adv-x="1105" d="M123 233v324l860 43v-367h-860zM123 725v324l860 43v-367h-860z" />
<glyph unicode="&#x3e;" horiz-adv-x="813" d="M123 362l188 353l-188 348l188 35l379 -383l-379 -410z" />
<glyph unicode="?" horiz-adv-x="1286" d="M61 1479q25 10 68 26.5t172 43t252 26.5q135 0 247.5 -22.5t212 -74t156 -147.5t56.5 -227t-60.5 -225.5t-145.5 -144.5t-170 -90t-145.5 -93t-60.5 -125h-428q0 127 46 220t111.5 145.5t131 93.5t112 90t46.5 112q0 39 -35 66t-86 27q-92 0 -195.5 -14.5t-161.5 -26.5 l-57 -15zM154 0v313l563 45v-358h-563z" />
<glyph unicode="@" horiz-adv-x="1736" d="M61 479q0 360 246 600t611 240q90 0 182 -13.5t139 -27.5l47 -12l45 -299h-22q-6 6 -16.5 18t-45.5 43t-71.5 53.5t-94 42t-116.5 19.5q-84 0 -162 -32t-148.5 -95.5t-112.5 -180t-42 -268t44 -271.5t114.5 -187.5t148.5 -101.5t156 -34q55 0 111 18.5t96 44t74 52.5 t50 45l17 19h20l-20 -168l262 16q-6 -14 -19.5 -40t-67.5 -89.5t-121 -111.5t-182.5 -88t-250.5 -40q-373 0 -622 239.5t-249 608.5zM1022 555q0 -72 46 -113t117.5 -41t118 41t46.5 113q0 76 -45 120t-119 44t-119 -44t-45 -120z" />
<glyph unicode="A" horiz-adv-x="1800" d="M0 -43q0 57 269.5 822t293.5 765l668 41l569 -1548l-596 -37l-53 190h-436l-56 -190q-498 -37 -657 -45q-2 0 -2 2zM819 567h232l-105 486h-22z" />
<glyph unicode="B" horiz-adv-x="1558" d="M123 0v1544q420 45 698 45q604 0 604 -428q0 -113 -54 -219t-148 -137v-12q129 -45 201.5 -138.5t72.5 -228.5q0 -115 -49 -200t-133 -133t-180.5 -70.5t-202.5 -22.5h-809zM688 389h64q47 0 75.5 3t68.5 13.5t60.5 39t20.5 73.5t-21.5 74t-64.5 39t-69.5 12t-78.5 2h-55 v-256zM688 909h51q51 0 84 5.5t61.5 33t28.5 76.5q0 31 -11 52.5t-24.5 31.5t-42 16t-43.5 6h-49h-16h-39v-221z" />
<glyph unicode="C" horiz-adv-x="1462" d="M61 758q0 336 238 574.5t573 238.5q340 0 570 -193l-133 -420l-48 32q-30 19 -117 51t-163 32q-127 0 -217 -88t-90 -213t92 -214t223 -89q76 0 150.5 25.5t111.5 50.5l37 26l127 -401q-113 -113 -276.5 -156t-288.5 -43q-328 0 -558.5 230.5t-230.5 556.5z" />
<glyph unicode="D" horiz-adv-x="1671" d="M123 -41v1604l571 28q25 2 72 2q186 0 336.5 -45t265.5 -136t178.5 -245.5t63.5 -359.5q0 -354 -216 -576.5t-560 -236.5zM643 465l35 2q147 6 238.5 85t91.5 230q0 306 -292 307q-18 0 -38 -2l-35 -2v-620z" />
<glyph unicode="E" horiz-adv-x="1245" d="M125 -47q8 0 16.5 322.5t8.5 668.5q0 604 -25 604l1042 43v-444l-475 -43v-150l373 45v-362l-373 -43v-154l492 45v-489z" />
<glyph unicode="F" horiz-adv-x="1206" d="M123 -25v1573l1083 43l-43 -465l-471 -43v-141h357l-45 -422h-312v-524z" />
<glyph unicode="G" horiz-adv-x="1775" d="M61 756q0 336 254 573.5t615 237.5q188 0 366.5 -50.5t259.5 -99.5l84 -49l-129 -412q-25 14 -67.5 36t-173.5 56.5t-260 34.5q-141 0 -241.5 -102t-100.5 -248q0 -137 83 -234.5t197 -97.5q92 0 155.5 56.5t63.5 142.5l-254 -61l21 364h760q20 -74 20 -139 q0 -330 -242.5 -564.5t-584.5 -234.5t-584 231.5t-242 559.5z" />
<glyph unicode="H" horiz-adv-x="1716" d="M123 -41v1634l586 -47v-522h344v565l540 45v-1630l-540 -45v578h-344v-533z" />
<glyph unicode="I" d="M123 0v1208h563v-1208h-563zM123 1311v362l563 45v-407h-563z" />
<glyph unicode="J" horiz-adv-x="1095" d="M0 141l141 377q86 -61 176 -61q123 0 123 170v581h551v-706q0 -231 -148.5 -381t-379.5 -150q-119 0 -243 46t-220 124zM434 1311v356l563 45v-401h-563z" />
<glyph unicode="K" horiz-adv-x="1744" d="M123 0v1587l592 -41l-15 -674h17l448 803l508 -133l-483 -751l555 -789l-651 -43l-377 686h-17l17 -645h-594z" />
<glyph unicode="L" horiz-adv-x="1189" d="M123 -37v1639l565 40v-1157l471 35v-497z" />
<glyph unicode="M" horiz-adv-x="2338" d="M50 -7q0 70 44 387q57 407 130 812t91 405l654 -47l225 -805h14q4 31 61 233l109 386l54 186l589 47l269 -1577l-559 -47l-80 889h-13q-10 -53 -272 -842l-344 -47q-244 821 -248 889h-20l-84 -842q-582 -47 -617 -47q-3 0 -3 13v7z" />
<glyph unicode="N" horiz-adv-x="1886" d="M123 -43v1544l600 47l473 -882h16l-2 972l553 45v-1681l-573 -43l-479 836h-17l25 -793z" />
<glyph unicode="O" horiz-adv-x="1837" d="M61 764q0 358 247 581.5t610 223.5q236 0 430 -98.5t311 -284t117 -422.5q0 -362 -246 -579.5t-612.5 -217.5t-611.5 217.5t-245 579.5zM672 756q0 -131 82 -215t209 -84t208.5 84t81.5 215q0 127 -80.5 215t-209.5 88t-210 -88t-81 -215z" />
<glyph unicode="P" horiz-adv-x="1466" d="M123 -35v1575l715 37q27 1 52 1q247 0 403 -125q173 -138 173 -417q0 -238 -138 -383t-374 -155l-288 -17v-483zM645 831l57 5q205 8 205 151q0 57 -35.5 86t-72.5 32q-22 2 -53 2q-21 0 -46 -1l-55 -4v-271z" />
<glyph unicode="Q" horiz-adv-x="1900" d="M61 762q0 362 247 583.5t610 221.5q377 0 616.5 -216t239.5 -589q0 -268 -144 -469l209 -170l-463 -330l-67 252q-178 -78 -422 -78q-356 0 -591 221.5t-235 573.5zM674 772q0 -129 82 -221t198 -92q45 0 158 33l-113 149l246 39q8 45 8 86q0 125 -86 214t-204.5 89 t-203.5 -87t-85 -210z" />
<glyph unicode="R" horiz-adv-x="1624" d="M123 -49v1593l682 12q9 0 18 1q276 0 435 -125q165 -129 165 -416q0 -186 -52 -274.5t-210 -143.5v-14q98 -111 214 -260.5t181 -243.5l68 -94l-668 -56l-272 545h-10v-471zM674 850h39q86 2 138 29.5t52 107.5q0 84 -48 110q-43 23 -119 23h-6h-13h-43v-270z" />
<glyph unicode="S" horiz-adv-x="1390" d="M61 117l127 418q20 -18 59.5 -46t151 -74t215.5 -46q51 0 97.5 22.5t46.5 69.5q0 12 -4 23.5t-8.5 18.5t-14.5 14t-16 10t-20.5 7.5t-19.5 6.5t-21.5 5t-20.5 3l-113 20q-178 31 -291.5 142.5t-113.5 289.5q0 176 99 309.5t249.5 199t322.5 65.5q123 0 246 -23.5 t185 -48.5l61 -24l-86 -416q-18 12 -53 31.5t-137.5 52.5t-202.5 33q-45 0 -83 -19.5t-38 -62.5q0 -12 3 -21.5t12 -16.5l16 -12q6 -5 20 -9.5t20.5 -6.5t21.5 -6t20 -4l127 -31q411 -98 411 -461q0 -264 -199.5 -410.5t-472.5 -146.5q-311 0 -573 131z" />
<glyph unicode="T" horiz-adv-x="1183" d="M0 1047v503l1184 43v-458l-312 -31v-1106h-563v1063z" />
<glyph unicode="U" horiz-adv-x="1652" d="M98 621v948l598 -45v-850q0 -55 3 -87t17.5 -69t47.5 -53t86 -16q43 0 71.5 13t44 30.5t23.5 52.5t9 59.5t1 69.5v895l555 43v-991q0 -324 -187 -486t-517 -162q-338 0 -545 164.5t-207 483.5z" />
<glyph unicode="V" horiz-adv-x="1800" d="M2 1507l647 45l250 -907h14q4 31 76 292l141 507l70 246l600 -134l-647 -1548q-512 -41 -537 -45q2 2 2 4q0 66 -288.5 794t-327.5 746z" />
<glyph unicode="W" horiz-adv-x="2013" d="M0 1300l643 238q117 -332 166 -526l168 288l178 -270l207 635l651 -129l-90 -286q-55 -177 -163.5 -603t-145.5 -706l-424 -31l-182 264l-129 -250l-310 66q-20 68 -61 187.5t-188.5 463.5t-319.5 659z" />
<glyph unicode="X" horiz-adv-x="1763" d="M0 27q432 626 537 772l4 6q0 21 -112 177l-249 333l-125 166l678 45q94 -184 166 -346h16q96 242 211 477q4 -2 570 -131q-14 0 -135 -181l-234 -362l-115 -180l551 -776l-639 -45l-217 421h-14l-209 -421z" />
<glyph unicode="Y" horiz-adv-x="1611" d="M2 1481l627 65l168 -416h14l258 551l524 -129q18 -5 19 -5l-2 -1q-16 0 -149 -226l-257 -452l-123 -225v-639l-592 -45v684q0 39 -229 438.5t-258 399.5z" />
<glyph unicode="Z" horiz-adv-x="1593" d="M49 0v35l662 1024l-9 6l-555 -64l43 531l1354 82v-45l-629 -1127l7 -8l602 53l-45 -487h-1430z" />
<glyph unicode="[" horiz-adv-x="849" d="M123 -303v1941h604v-180h-203v-1581h203v-180h-604z" />
<glyph unicode="\" horiz-adv-x="827" d="M0 1602l340 49l487 -1819l-340 -49z" />
<glyph unicode="]" horiz-adv-x="849" d="M123 -123h203v1581h-203v180h604v-1941h-604v180z" />
<glyph unicode="^" horiz-adv-x="604" d="M123 571v416l358 45v-461h-358z" />
<glyph unicode="_" horiz-adv-x="1505" d="M123 -102h1259v-283h-1259v283z" />
<glyph unicode="`" horiz-adv-x="770" d="M102 1475l318 211l268 -338l-186 -127z" />
<glyph unicode="a" horiz-adv-x="1515" d="M61 573q0 268 133.5 420t335.5 152q201 0 340 -178h21l-21 153l523 41v-1141l-523 -40l21 174h-21q-6 -8 -17 -19.5t-48 -42.5t-74 -54.5t-92 -43t-109 -19.5q-201 0 -335 159.5t-134 438.5zM582 555q0 -72 46 -113t117.5 -41t117.5 41t46 113q0 76 -45 120t-118.5 44 t-118.5 -44t-45 -120z" />
<glyph unicode="b" horiz-adv-x="1497" d="M123 -20v1658l545 41l-21 -706h21q4 6 13 18.5t38 42t61.5 52t82.5 41t104 18.5q201 0 335 -160t134 -438q0 -268 -133.5 -420t-335.5 -152q-201 0 -340 179h-21l21 -154zM600 569q0 -76 45 -119.5t119 -43.5t119 44t45 119q0 72 -46 113t-118 41t-118 -41t-46 -113z" />
<glyph unicode="c" horiz-adv-x="1036" d="M61 551q0 248 173.5 422t416.5 174q90 0 179.5 -23.5t132.5 -46.5l43 -24l-45 -375q-66 41 -166 41q-88 0 -146.5 -49t-58.5 -129t60.5 -129.5t150.5 -49.5q100 0 145 33l39 -321l-50 -27q-32 -16 -124 -44t-176 -28q-238 0 -406 168t-168 408z" />
<glyph unicode="d" horiz-adv-x="1497" d="M61 547q0 279 134.5 438.5t334.5 159.5q162 0 283 -150l16 -22h21l-21 665l545 41v-1679l-504 -20l21 174h-21q-139 -178 -340 -179q-203 0 -336 152t-133 420zM582 555q0 -72 46 -113t117.5 -41t117.5 41t46 113q0 76 -45 120t-118.5 44t-118.5 -44t-45 -120z" />
<glyph unicode="e" horiz-adv-x="1390" d="M61 547q0 295 184.5 446.5t475.5 151.5q289 0 464 -152.5t175 -445.5l-6 -92h-779q0 -74 67 -107t214 -33q172 0 361 72l51 -307q-2 0 -44 -16.5t-80 -28.5t-95.5 -27.5t-124 -24t-136.5 -8.5q-338 0 -532.5 145.5t-194.5 426.5zM582 657h323q0 76 -45 120t-117 44 q-74 0 -117.5 -44t-43.5 -120z" />
<glyph unicode="f" horiz-adv-x="1071" d="M61 727l21 352l111 21v80q0 276 97 379.5t331 103.5q106 0 209.5 -18.5t152.5 -38.5l51 -19l6 -325q-82 20 -176 20q-127 0 -127 -141v-41h269v-393h-269v-707l-544 -41v768h-132z" />
<glyph unicode="g" horiz-adv-x="1515" d="M61 573q0 268 133.5 420t335.5 152q201 0 340 -178h21l-21 153l523 41v-1057q0 -154 -59.5 -271.5t-163 -186t-230.5 -103.5t-274 -35q-70 0 -136.5 8.5t-124 24t-95.5 27.5t-80 28.5t-44 16.5l72 307q168 -74 340 -74t230.5 69t62.5 239h-21q-6 -8 -17 -19.5t-48 -42.5 t-74 -54.5t-92 -43t-109 -19.5q-201 0 -335 159.5t-134 438.5zM582 555q0 -72 46 -113t117.5 -41t117.5 41t46 113q0 76 -45 120t-118.5 44t-118.5 -44t-45 -120z" />
<glyph unicode="h" horiz-adv-x="1523" d="M123 0v1638l545 41l-21 -733q147 199 387 199q233 0 330.5 -122t97.5 -443v-580h-514v580q0 143 -127 143q-76 0 -168 -21v-702h-530z" />
<glyph unicode="i" horiz-adv-x="790" d="M123 0v1120h545v-1120h-545zM123 1225v354l545 45v-399h-545z" />
<glyph unicode="j" horiz-adv-x="790" d="M-227 -152q29 -2 57 -2q176 0 234.5 72t58.5 256v946h545v-1016q0 -154 -59.5 -271.5t-163 -186t-230.5 -103.5t-274 -35l-113 9zM123 1225v354l545 45v-399h-545z" />
<glyph unicode="k" horiz-adv-x="1712" d="M123 0v1638l545 41v-1032h16l324 514l589 -41l-432 -549l547 -571l-672 -41l-356 481h-16v-440h-545z" />
<glyph unicode="l" horiz-adv-x="790" d="M123 -41v1679l545 41v-1679z" />
<glyph unicode="m" horiz-adv-x="2330" d="M123 0v1120l504 21l-21 -174h21q170 178 368 178q166 0 260.5 -58.5t135.5 -199.5q72 119 181 188.5t228 69.5q233 0 330.5 -122t97.5 -443v-580h-514v580q0 143 -123 143q-76 0 -168 -21v-702h-514v580q0 143 -127 143q-80 0 -161 -21v-702h-498z" />
<glyph unicode="n" horiz-adv-x="1550" d="M123 0v1120l504 21l-21 -174h21q170 178 372 178q233 0 330.5 -122t97.5 -443v-580h-514v580q0 143 -127 143q-84 0 -165 -21v-702h-498z" />
<glyph unicode="o" horiz-adv-x="1441" d="M61 547q0 291 183.5 444.5t476.5 153.5t476 -153.5t183 -444.5q0 -274 -189.5 -423t-470 -149t-470 149t-189.5 423zM631 555q0 -72 43 -113t106.5 -41t106.5 41t43 113q0 76 -41 120t-108.5 44t-108.5 -44t-41 -120z" />
<glyph unicode="p" horiz-adv-x="1497" d="M123 -457v1577l504 21l-21 -174h21q139 178 340 178q203 0 336 -151.5t133 -420.5q0 -279 -134.5 -438.5t-334.5 -159.5q-162 0 -283 150l-16 22h-21l21 -563zM600 569q0 -76 45 -119.5t119 -43.5t119 44t45 119q0 72 -46 113t-118 41t-118 -41t-46 -113z" />
<glyph unicode="q" horiz-adv-x="1497" d="M61 573q0 268 133.5 420t335.5 152q201 0 340 -178h21l-21 153l504 21v-1557l-545 -41l21 604h-21q-4 -6 -13 -18t-37.5 -42t-61.5 -52.5t-83 -41t-104 -18.5q-201 0 -335 159.5t-134 438.5zM582 555q0 -72 46 -113t117.5 -41t117.5 41t46 113q0 76 -45 120t-118.5 44 t-118.5 -44t-45 -120z" />
<glyph unicode="r" horiz-adv-x="1050" d="M123 0v1120l504 21l-21 -174h21q170 178 393 178v-504q-96 20 -213 21q-104 0 -186 -21v-641h-498z" />
<glyph unicode="s" horiz-adv-x="1105" d="M61 78l54 307q166 -84 323 -84q39 0 69 18.5t30 42.5q0 10 -3.5 19.5t-7.5 17t-12 12.5t-13 7t-18.5 5t-17.5 4t-18.5 3t-16.5 2q-340 51 -340 320q0 133 81 225t191.5 130t235.5 38q106 0 211.5 -23.5t157.5 -48.5l53 -24l-51 -289q-152 71 -297 71h-4q-39 0 -68 -14 t-29 -35q0 -35 28 -48t85 -21q12 0 18 -2q164 -29 253 -99.5t89 -226.5q0 -137 -82.5 -233.5t-197.5 -136.5t-246 -40q-106 0 -220 26t-175 52z" />
<glyph unicode="t" horiz-adv-x="1091" d="M31 748l20 352l111 20v236l524 20l-20 -256l309 21v-393h-299v-207q0 -143 127 -144q125 0 207 21l-6 -285q-70 -72 -188 -115t-226 -43q-233 0 -330.5 103.5t-97.5 380.5v289h-131z" />
<glyph unicode="u" horiz-adv-x="1529" d="M102 541v559l514 41v-600q0 -143 127 -144q84 0 166 21l-2 682l500 41v-1141l-504 -20l21 174h-21q-170 -178 -373 -179q-233 0 -330.5 122t-97.5 444z" />
<glyph unicode="v" horiz-adv-x="1449" d="M0 1102l557 41l148 -662h14l172 715l559 -31l-496 -1165l-465 -41z" />
<glyph unicode="w" horiz-adv-x="2084" d="M0 1102l557 41l148 -662h14l153 637l320 25l147 -662h15l172 715l559 -31l-496 -1165l-442 -41l-113 424h-14l-86 -383l-442 -41z" />
<glyph unicode="x" horiz-adv-x="1517" d="M0 1100l590 41l158 -342h14l112 362l570 -41l-412 -549l486 -571l-652 -41l-166 342h-14l-104 -342l-570 21l412 548z" />
<glyph unicode="y" horiz-adv-x="1449" d="M0 1102l561 41l178 -678h15l151 700l545 -41l-729 -1581l-520 41l317 484z" />
<glyph unicode="z" horiz-adv-x="1241" d="M31 0v68l450 675v13l-409 -74l20 438l1096 62v-29l-440 -758v-14l462 37l-20 -418h-1159z" />
<glyph unicode="{" horiz-adv-x="1034" d="M123 596v160q141 0 214 48t73 126v508q0 82 59 141t141 59h301v-159l-100 -21v-549q0 -92 -56.5 -157.5t-133.5 -65.5v-20q78 0 134 -65.5t56 -158.5v-548l100 -21v-160h-301q-82 0 -141 59.5t-59 141.5v508q0 78 -73 126t-214 48z" />
<glyph unicode="|" horiz-adv-x="749" d="M205 -246v1884l340 41v-1884z" />
<glyph unicode="}" horiz-adv-x="1034" d="M123 -127l100 21v548q0 92 56.5 158t134.5 66v20q-78 0 -134.5 65.5t-56.5 157.5v549l-100 21v159h301q84 0 142.5 -59t58.5 -141v-508q0 -78 72.5 -126t213.5 -48v-160q-141 0 -213.5 -48t-72.5 -126v-508q0 -82 -58.5 -141.5t-142.5 -59.5h-301v160z" />
<glyph unicode="~" horiz-adv-x="991" d="M123 772q4 6 11 18.5t31.5 41t52.5 51t69 41t84 18.5q49 0 126.5 -36t125.5 -36q45 0 90 18.5t69 37.5l23 18l63 -143q-4 -6 -10 -17.5t-27.5 -41t-46 -51t-65.5 -40t-84 -18.5q-55 0 -148.5 37t-132.5 37q-43 0 -88 -18.5t-69 -37.5l-23 -18z" />
<glyph unicode="&#xa1;" d="M123 1223v358h563v-313zM131 0l41 1151h463l41 -1110z" />
<glyph unicode="&#xa2;" horiz-adv-x="1036" d="M61 551q0 217 137.5 382t344.5 204v141l278 41v-195q113 -27 185 -71l-45 -375q-66 41 -166 41q-88 0 -146.5 -49t-58.5 -129t60.5 -129.5t150.5 -49.5q100 0 145 33l39 -321q-70 -41 -164 -70v-137l-278 -41v158q-207 33 -344.5 192.5t-137.5 374.5z" />
<glyph unicode="&#xa3;" horiz-adv-x="604" d="M123 571v416l358 45v-461h-358z" />
<glyph unicode="&#xa5;" horiz-adv-x="604" d="M123 571v416l358 45v-461h-358z" />
<glyph unicode="&#xa7;" horiz-adv-x="604" d="M123 571v416l358 45v-461h-358z" />
<glyph unicode="&#xa8;" horiz-adv-x="1198" d="M123 1233v313l420 45v-358h-420zM655 1233v313l420 45v-358h-420z" />
<glyph unicode="&#xa9;" horiz-adv-x="792" d="M61 1161q0 168 119 288t287 120q190 0 305 -96l-65 -211q-98 57 -185 57q-63 0 -108 -44t-45 -106q0 -63 46 -107t111 -44q37 0 80 12t66 27l24 12l64 -201q-41 -41 -108.5 -64.5t-112.5 -29.5t-82 -6q-164 0 -280 114.5t-116 278.5z" />
<glyph unicode="&#xaa;" horiz-adv-x="604" d="M123 571v416l358 45v-461h-358z" />
<glyph unicode="&#xab;" horiz-adv-x="1181" d="M123 715l317 383l189 -35l-148 -348l148 -353l-189 -57zM614 715l236 321l209 -35l-148 -286l148 -291l-209 -57z" />
<glyph unicode="&#xac;" horiz-adv-x="604" d="M123 571v416l358 45v-461h-358z" />
<glyph unicode="&#xad;" horiz-adv-x="890" d="M123 602v385l645 45v-430h-645z" />
<glyph unicode="&#xae;" horiz-adv-x="944" d="M123 745v797l412 6q311 6 311 -270q0 -92 -26.5 -136t-106.5 -73v-6q49 -55 107.5 -130t90.5 -122l33 -47l-334 -29l-135 273h-47v-236zM428 1196h61q94 0 95 68q0 41 -23.5 54t-68.5 13h-64v-135z" />
<glyph unicode="&#xb0;" horiz-adv-x="884" d="M61 1190q0 158 111 257t270.5 99t270 -99t110.5 -257q0 -162 -109.5 -258t-271.5 -96q-164 0 -272.5 96t-108.5 258zM319 1186q0 -74 46.5 -120t115.5 -46q72 0 118 46t46 120q0 70 -45 119t-119 49q-72 0 -117 -49t-45 -119z" />
<glyph unicode="&#xb1;" horiz-adv-x="604" d="M123 571v416l358 45v-461h-358z" />
<glyph unicode="&#xb2;" horiz-adv-x="1288" d="M0 1432q100 59 250.5 98t292.5 39q168 0 314.5 -54.5t246.5 -177.5t100 -293q0 -78 -26.5 -156.5t-68.5 -141t-93 -119t-103.5 -98.5t-94.5 -72.5t-68 -46.5l-27 -15v-16l504 55v-434h-1174v332q25 12 64 33.5t138 90t176 141.5t139.5 180.5t62.5 209.5q0 76 -57.5 130 t-139.5 54q-74 0 -155.5 -17t-126.5 -36l-45 -16z" />
<glyph unicode="&#xb3;" horiz-adv-x="1210" d="M0 131l102 328q143 -86 304 -86q115 0 174 44t59 111q0 86 -84 141.5t-244 55.5v172q287 -2 287 154q0 55 -49 89t-148 34q-139 0 -272 -56l-94 314q25 16 67.5 38.5t173 60.5t252.5 38q229 0 392 -130t163 -313q0 -96 -51 -179t-139 -120v-12q119 -31 187.5 -127 t68.5 -221q0 -215 -181.5 -353.5t-475.5 -138.5q-266 0 -469 140z" />
<glyph unicode="&#xb4;" horiz-adv-x="770" d="M102 1348l269 338l317 -211l-399 -254z" />
<glyph unicode="&#xb6;" horiz-adv-x="1703" d="M61 1014q0 236 137.5 379t374.5 159l504 37v-1671l-276 -35v586l-111 4q-629 25 -629 541zM559 1051q0 -57 36 -86t73 -32t98 -1l55 4v270l-57 -4q-205 -8 -205 -151zM1241 -111v1680l340 41v-1680z" />
<glyph unicode="&#xb7;" horiz-adv-x="604" d="M123 571v416l358 45v-461h-358z" />
<glyph unicode="&#xb8;" horiz-adv-x="798" d="M94 -446l185 313h358v-334z" />
<glyph unicode="&#xb9;" horiz-adv-x="917" d="M0 1114v324l795 168v-971l-557 -62l20 578z" />
<glyph unicode="&#xba;" horiz-adv-x="604" d="M123 571v416l358 45v-461h-358z" />
<glyph unicode="&#xbb;" horiz-adv-x="1181" d="M123 424l147 291l-147 286l209 35l235 -321l-235 -348zM553 362l147 353l-147 348l188 35l318 -383l-318 -410z" />
<glyph unicode="&#xbc;" horiz-adv-x="3764" d="M0 1053v385l795 168v-1586l-557 -61l20 1131zM918 0l936 1569l315 -94l-936 -1569zM2224 309v389l674 885l623 -39v-796l194 14v-453h-209v-309l-524 -41v350h-758zM2736 698l266 21l4 360h-12l-258 -372v-9z" />
<glyph unicode="&#xbd;" horiz-adv-x="3463" d="M0 1053v385l795 168v-1586l-557 -61l20 1131zM918 0l936 1569l315 -94l-936 -1569zM2175 1432q100 59 250.5 98t292.5 39q168 0 314.5 -54.5t246.5 -177.5t100 -293q0 -78 -26.5 -156.5t-68.5 -141t-93 -119t-103.5 -98.5t-94.5 -72.5t-68 -46.5l-27 -15v-16l504 55v-434 h-1174v332q25 12 64 33.5t138 90t176 141.5t139.5 180.5t62.5 209.5q0 76 -57.5 130t-139.5 54q-74 0 -155.5 -17t-126.5 -36l-45 -16z" />
<glyph unicode="&#xbe;" horiz-adv-x="4057" d="M0 131l102 328q143 -86 304 -86q115 0 174 44t59 111q0 86 -84 141.5t-244 55.5v172q287 -2 287 154q0 55 -49 89t-148 34q-139 0 -272 -56l-94 314q25 16 67.5 38.5t173 60.5t252.5 38q229 0 392 -130t163 -313q0 -96 -51 -179t-139 -120v-12q119 -31 187.5 -127 t68.5 -221q0 -215 -181.5 -353.5t-475.5 -138.5q-266 0 -469 140zM1210 0l936 1569l315 -94l-936 -1569zM2517 309v389l674 885l623 -39v-796l194 14v-453h-209v-309l-524 -41v350h-758zM3029 698l266 21l4 360h-12l-258 -372v-9z" />
<glyph unicode="&#xbf;" horiz-adv-x="1286" d="M61 446.5q0 131.5 60.5 225.5t145.5 144t170 90t145.5 93.5t60.5 124.5h428q0 -127 -46 -220t-111.5 -145t-131 -93t-111.5 -90.5t-46 -112.5q0 -39 34.5 -65.5t85.5 -26.5q92 0 195.5 13t161.5 28l57 14l66 -354q-25 -10 -68 -26.5t-172 -43.5t-252 -27 q-135 0 -247.5 22.5t-212 74t-156 147.5t-56.5 227.5zM569 1192v358h564v-313z" />
<glyph unicode="&#xc0;" horiz-adv-x="1800" d="M0 -43q0 57 269.5 822t293.5 765l668 41l569 -1548l-596 -37l-53 190h-436l-56 -190q-498 -37 -657 -45q-2 0 -2 2zM471 1884l317 211l269 -338l-187 -127zM819 567h232l-105 486h-22z" />
<glyph unicode="&#xc1;" horiz-adv-x="1800" d="M0 -43q0 57 269.5 822t293.5 765l668 41l569 -1548l-596 -37l-53 190h-436l-56 -190q-498 -37 -657 -45q-2 0 -2 2zM698 1757l269 338l317 -211l-399 -254zM819 567h232l-105 486h-22z" />
<glyph unicode="&#xc2;" horiz-adv-x="1800" d="M0 -43q0 57 269.5 822t293.5 765l668 41l569 -1548l-596 -37l-53 190h-436l-56 -190q-498 -37 -657 -45q-2 0 -2 2zM537 1860l389 194l362 -194l-35 -230l-327 107l-332 -107zM819 567h232l-105 486h-22z" />
<glyph unicode="&#xc3;" horiz-adv-x="1800" d="M0 -43q0 57 269.5 822t293.5 765l668 41l569 -1548l-596 -37l-53 190h-436l-56 -190q-498 -37 -657 -45q-2 0 -2 2zM528 1808q4 6 11.5 18.5t32 41t52 51.5t68.5 41t84 18q49 0 127 -35.5t125 -35.5q45 0 90 18.5t70 36.5l22 18l64 -143q-4 -6 -10.5 -17.5t-28 -41 t-46 -51t-65.5 -40t-84 -18.5q-55 0 -148 37t-132 37q-43 0 -88 -18.5t-70 -36.5l-22 -19zM819 567h232l-105 486h-22z" />
<glyph unicode="&#xc4;" horiz-adv-x="1800" d="M0 -43q0 57 269.5 822t293.5 765l668 41l569 -1548l-596 -37l-53 190h-436l-56 -190q-498 -37 -657 -45q-2 0 -2 2zM434 1642v314l420 45v-359h-420zM819 567h232l-105 486h-22zM967 1642v314l419 45v-359h-419z" />
<glyph unicode="&#xc5;" horiz-adv-x="1800" d="M0 -43q0 57 269.5 822t293.5 765l668 41l569 -1548l-596 -37l-53 190h-436l-56 -190q-498 -37 -657 -45q-2 0 -2 2zM610 1710q0 113 79 183.5t194 70.5q113 0 191.5 -70.5t78.5 -183.5q0 -115 -78 -183.5t-192 -68.5q-117 0 -195 68.5t-78 183.5zM774 1706q0 -61 38 -99 t97.5 -38t98.5 38t39 99q0 59 -38 101t-100 42q-59 0 -97 -42t-38 -101zM819 567h232l-105 486h-22z" />
<glyph unicode="&#xc6;" horiz-adv-x="3045" d="M0 -43q0 57 269.5 822t293.5 765l668 41l569 -1548l-596 -37l-53 190h-436l-56 -190q-498 -37 -657 -45q-2 0 -2 2zM819 567h232l-105 486h-22zM1925 -47q8 0 16.5 322.5t8.5 668.5q0 604 -25 604l1043 43v-444l-476 -43v-150l373 45v-362l-373 -43v-154l492 45v-489z " />
<glyph unicode="&#xc7;" horiz-adv-x="1462" d="M61 758q0 336 238 574.5t573 238.5q340 0 570 -193l-133 -420l-48 32q-30 19 -117 51t-163 32q-127 0 -217 -88t-90 -213t92 -214t223 -89q76 0 150.5 25.5t111.5 50.5l37 26l127 -401q-113 -113 -276.5 -156t-288.5 -43q-328 0 -558.5 230.5t-230.5 556.5zM565 -446 l543 -21v334h-358z" />
<glyph unicode="&#xc8;" horiz-adv-x="1245" d="M125 -47q8 0 16.5 322.5t8.5 668.5q0 604 -25 604l1042 43v-444l-475 -43v-150l373 45v-362l-373 -43v-154l492 45v-489zM252 1884l317 211l269 -338l-187 -127z" />
<glyph unicode="&#xc9;" horiz-adv-x="1245" d="M125 -47q8 0 16.5 322.5t8.5 668.5q0 604 -25 604l1042 43v-444l-475 -43v-150l373 45v-362l-373 -43v-154l492 45v-489zM369 1757l268 338l317 -211l-399 -254z" />
<glyph unicode="&#xca;" horiz-adv-x="1245" d="M125 -47q8 0 16.5 322.5t8.5 668.5q0 604 -25 604l1042 43v-444l-475 -43v-150l373 45v-362l-373 -43v-154l492 45v-489zM313 1860l389 194l363 -194l-35 -230l-328 107l-331 -107z" />
<glyph unicode="&#xcb;" horiz-adv-x="1245" d="M125 -47q8 0 16.5 322.5t8.5 668.5q0 604 -25 604l1042 43v-444l-475 -43v-150l373 45v-362l-373 -43v-154l492 45v-489zM184 1642v314l420 45v-359h-420zM717 1642v314l420 45v-359h-420z" />
<glyph unicode="&#xcc;" d="M102 1536l318 211l268 -338l-186 -127zM123 0v1208h563v-1208h-563z" />
<glyph unicode="&#xcd;" d="M123 0v1208h563v-1208h-563zM143 1405l269 338l317 -211l-399 -254z" />
<glyph unicode="&#xce;" d="M27 1499l389 195l362 -195l-35 -229l-327 106l-332 -106zM123 0v1208h563v-1208h-563z" />
<glyph unicode="&#xcf;" d="M-70 1313v313l420 45v-358h-420zM123 0v1208h563v-1208h-563zM463 1313v313l420 45v-358h-420z" />
<glyph unicode="&#xd0;" horiz-adv-x="1722" d="M-31 555v471h205v537l571 28q25 2 72 2q186 0 337 -45t265.5 -136t178 -245.5t63.5 -359.5q0 -354 -216 -576.5t-560 -236.5l-711 -35v596h-205zM694 465l35 2q147 6 238.5 85t91.5 230q0 326 -330 305l-35 -2v-620z" />
<glyph unicode="&#xd1;" horiz-adv-x="1886" d="M123 -43v1544l600 47l473 -882h16l-2 972l553 45v-1681l-573 -43l-479 836h-17l25 -793zM612 1808q4 6 11.5 18.5t32 41t52 51.5t68.5 41t84 18q49 0 127 -35.5t125 -35.5q45 0 90 18.5t68 36.5l24 18l64 -143q-4 -6 -10.5 -17.5t-28 -41t-46 -51t-65.5 -40t-84 -18.5 q-55 0 -148 37t-132 37q-43 0 -88 -18.5t-68 -36.5l-24 -19z" />
<glyph unicode="&#xd2;" horiz-adv-x="1837" d="M61 764q0 358 247 581.5t610 223.5q236 0 430 -98.5t311 -284t117 -422.5q0 -362 -246 -579.5t-612.5 -217.5t-611.5 217.5t-245 579.5zM512 1884l317 211l269 -338l-187 -127zM672 756q0 -131 82 -215t209 -84t208.5 84t81.5 215q0 127 -80.5 215t-209.5 88t-210 -88 t-81 -215z" />
<glyph unicode="&#xd3;" horiz-adv-x="1837" d="M61 764q0 358 247 581.5t610 223.5q236 0 430 -98.5t311 -284t117 -422.5q0 -362 -246 -579.5t-612.5 -217.5t-611.5 217.5t-245 579.5zM672 756q0 -131 82 -215t209 -84t208.5 84t81.5 215q0 127 -80.5 215t-209.5 88t-210 -88t-81 -215zM717 1757l268 338l318 -211 l-400 -254z" />
<glyph unicode="&#xd4;" horiz-adv-x="1837" d="M61 764q0 358 247 581.5t610 223.5q236 0 430 -98.5t311 -284t117 -422.5q0 -362 -246 -579.5t-612.5 -217.5t-611.5 217.5t-245 579.5zM557 1860l389 194l363 -194l-35 -230l-328 107l-332 -107zM672 756q0 -131 82 -215t209 -84t208.5 84t81.5 215q0 127 -80.5 215 t-209.5 88t-210 -88t-81 -215z" />
<glyph unicode="&#xd5;" horiz-adv-x="1837" d="M61 764q0 358 247 581.5t610 223.5q236 0 430 -98.5t311 -284t117 -422.5q0 -362 -246 -579.5t-612.5 -217.5t-611.5 217.5t-245 579.5zM592 1808q4 6 11 18.5t31.5 41t52.5 51.5t69 41t84 18q49 0 126.5 -35.5t125.5 -35.5q45 0 90 18.5t67 36.5l25 18l63 -143 q-4 -6 -10 -17.5t-27.5 -41t-46 -51t-65.5 -40t-84 -18.5q-55 0 -148.5 37t-132.5 37q-43 0 -88 -18.5t-67 -36.5l-25 -19zM672 756q0 -131 82 -215t209 -84t208.5 84t81.5 215q0 127 -80.5 215t-209.5 88t-210 -88t-81 -215z" />
<glyph unicode="&#xd6;" horiz-adv-x="1837" d="M61 764q0 358 247 581.5t610 223.5q236 0 430 -98.5t311 -284t117 -422.5q0 -362 -246 -579.5t-612.5 -217.5t-611.5 217.5t-245 579.5zM430 1642v314l420 45v-359h-420zM672 756q0 -131 82 -215t209 -84t208.5 84t81.5 215q0 127 -80.5 215t-209.5 88t-210 -88t-81 -215 zM963 1642v314l419 45v-359h-419z" />
<glyph unicode="&#xd7;" horiz-adv-x="1140" d="M92 899l301 303l182 -219l175 213l299 -299l-220 -199l205 -182l-276 -283l-187 207l-188 -209l-268 269l200 194z" />
<glyph unicode="&#xd8;" horiz-adv-x="1837" d="M61 764q0 358 247 581.5t610 223.5q236 0 430 -98.5t311 -284t117 -422.5q0 -362 -246 -579.5t-612.5 -217.5t-611.5 217.5t-245 579.5zM528 -141l150 569l340 -49l-150 -569zM672 756q0 -131 82 -215t209 -84t208.5 84t81.5 215q0 127 -80.5 215t-209.5 88t-210 -88 t-81 -215zM956 1096l150 569l340 -49l-150 -569z" />
<glyph unicode="&#xd9;" horiz-adv-x="1652" d="M98 621v948l598 -45v-850q0 -55 3 -87t17.5 -69t47.5 -53t86 -16q43 0 71.5 13t44 30.5t23.5 52.5t9 59.5t1 69.5v895l555 43v-991q0 -324 -187 -486t-517 -162q-338 0 -545 164.5t-207 483.5zM451 1884l317 211l268 -338l-186 -127z" />
<glyph unicode="&#xda;" horiz-adv-x="1652" d="M98 621v948l598 -45v-850q0 -55 3 -87t17.5 -69t47.5 -53t86 -16q43 0 71.5 13t44 30.5t23.5 52.5t9 59.5t1 69.5v895l555 43v-991q0 -324 -187 -486t-517 -162q-338 0 -545 164.5t-207 483.5zM670 1757l268 338l317 -211l-399 -254z" />
<glyph unicode="&#xdb;" horiz-adv-x="1652" d="M98 621v948l598 -45v-850q0 -55 3 -87t17.5 -69t47.5 -53t86 -16q43 0 71.5 13t44 30.5t23.5 52.5t9 59.5t1 69.5v895l555 43v-991q0 -324 -187 -486t-517 -162q-338 0 -545 164.5t-207 483.5zM457 1860l389 194l362 -194l-34 -230l-328 107l-332 -107z" />
<glyph unicode="&#xdc;" horiz-adv-x="1652" d="M98 621v948l598 -45v-850q0 -55 3 -87t17.5 -69t47.5 -53t86 -16q43 0 71.5 13t44 30.5t23.5 52.5t9 59.5t1 69.5v895l555 43v-991q0 -324 -187 -486t-517 -162q-338 0 -545 164.5t-207 483.5zM367 1642v314l419 45v-359h-419zM899 1642v314l420 45v-359h-420z" />
<glyph unicode="&#xdd;" horiz-adv-x="1611" d="M2 1481l627 65l168 -416h14l258 551l524 -129q25 -6 17 -6q-16 0 -149 -226l-257 -452l-123 -225v-639l-592 -45v684q0 39 -229 438.5t-258 399.5zM614 1757l269 338l317 -211l-399 -254z" />
<glyph unicode="&#xde;" horiz-adv-x="1466" d="M123 -35v1575l524 41v-260l191 10q283 14 455.5 -124t172.5 -416q0 -238 -138 -383.5t-374 -155.5l-288 -16v-238zM645 586l57 4q205 8 205 151q0 57 -35.5 86t-72.5 32t-99 1l-55 -4v-270z" />
<glyph unicode="&#xdf;" horiz-adv-x="604" d="M123 571v416l358 45v-461h-358z" />
<glyph unicode="&#xe0;" horiz-adv-x="1515" d="M61 573q0 268 133.5 420t335.5 152q201 0 340 -178h21l-21 153l523 41v-1141l-523 -40l21 174h-21q-6 -8 -17 -19.5t-48 -42.5t-74 -54.5t-92 -43t-109 -19.5q-201 0 -335 159.5t-134 438.5zM389 1475l318 211l268 -338l-187 -127zM582 555q0 -72 46 -113t117.5 -41 t117.5 41t46 113q0 76 -45 120t-118.5 44t-118.5 -44t-45 -120z" />
<glyph unicode="&#xe1;" horiz-adv-x="1515" d="M61 573q0 268 133.5 420t335.5 152q201 0 340 -178h21l-21 153l523 41v-1141l-523 -40l21 174h-21q-6 -8 -17 -19.5t-48 -42.5t-74 -54.5t-92 -43t-109 -19.5q-201 0 -335 159.5t-134 438.5zM582 555q0 -72 46 -113t117.5 -41t117.5 41t46 113q0 76 -45 120t-118.5 44 t-118.5 -44t-45 -120zM594 1348l268 338l318 -211l-400 -254z" />
<glyph unicode="&#xe2;" horiz-adv-x="1515" d="M61 573q0 268 133.5 420t335.5 152q201 0 340 -178h21l-21 153l523 41v-1141l-523 -40l21 174h-21q-6 -8 -17 -19.5t-48 -42.5t-74 -54.5t-92 -43t-109 -19.5q-201 0 -335 159.5t-134 438.5zM375 1450l389 195l362 -195l-34 -229l-328 106l-332 -106zM582 555 q0 -72 46 -113t117.5 -41t117.5 41t46 113q0 76 -45 120t-118.5 44t-118.5 -44t-45 -120z" />
<glyph unicode="&#xe3;" horiz-adv-x="1515" d="M61 573q0 268 133.5 420t335.5 152q201 0 340 -178h21l-21 153l523 41v-1141l-523 -40l21 174h-21q-6 -8 -17 -19.5t-48 -42.5t-74 -54.5t-92 -43t-109 -19.5q-201 0 -335 159.5t-134 438.5zM406 1399q4 6 11 18.5t31.5 41t52 51t68.5 41t84 18.5q49 0 127 -36t125 -36 q45 0 90 18.5t70 36.5l22 19l64 -144q-4 -6 -10 -17t-27.5 -41t-46.5 -51.5t-65.5 -39.5t-83.5 -18q-55 0 -148.5 36.5t-132.5 36.5q-43 0 -88 -18.5t-70 -36.5l-22 -18zM582 555q0 -72 46 -113t117.5 -41t117.5 41t46 113q0 76 -45 120t-118.5 44t-118.5 -44t-45 -120z" />
<glyph unicode="&#xe4;" horiz-adv-x="1515" d="M61 573q0 268 133.5 420t335.5 152q201 0 340 -178h21l-21 153l523 41v-1141l-523 -40l21 174h-21q-6 -8 -17 -19.5t-48 -42.5t-74 -54.5t-92 -43t-109 -19.5q-201 0 -335 159.5t-134 438.5zM287 1233v313l420 45v-358h-420zM582 555q0 -72 46 -113t117.5 -41t117.5 41 t46 113q0 76 -45 120t-118.5 44t-118.5 -44t-45 -120zM819 1233v313l420 45v-358h-420z" />
<glyph unicode="&#xe5;" horiz-adv-x="1515" d="M61 573q0 268 133.5 420t335.5 152q201 0 340 -178h21l-21 153l523 41v-1141l-523 -40l21 174h-21q-6 -8 -17 -19.5t-48 -42.5t-74 -54.5t-92 -43t-109 -19.5q-201 0 -335 159.5t-134 438.5zM467 1434q0 113 79 183.5t193 70.5q113 0 192 -71t79 -183q0 -115 -78 -183.5 t-193 -68.5q-117 0 -194.5 68.5t-77.5 183.5zM582 555q0 -72 46 -113t117.5 -41t117.5 41t46 113q0 76 -45 120t-118.5 44t-118.5 -44t-45 -120zM631 1430q0 -61 38 -99.5t97 -38.5t98 38t39 100q0 59 -38 101t-99 42q-59 0 -97 -42t-38 -101z" />
<glyph unicode="&#xe6;" horiz-adv-x="2238" d="M61 573q0 268 133.5 420t335.5 152q201 0 340 -178h21l-21 153l277 41l-19 -129h19q20 12 56 30.5t146.5 50.5t219.5 32q289 0 464 -152.5t175 -445.5l-6 -92h-779q23 -80 89.5 -111t191.5 -31q172 0 360 74l52 -307q-2 0 -44 -16.5t-80 -28.5t-95.5 -27.5t-124 -24 t-136.5 -8.5q-301 0 -481 115h-16l8 -70l-277 -40l21 174h-21q-6 -8 -17 -19.5t-48 -42.5t-74 -54.5t-92 -43t-109 -19.5q-201 0 -335 159.5t-134 438.5zM582 555q0 -72 46 -113t117.5 -41t117.5 41t46 113q0 76 -45 120t-118.5 44t-118.5 -44t-45 -120zM1430 657h323 q0 76 -45 120t-117 44q-74 0 -117.5 -44t-43.5 -120z" />
<glyph unicode="&#xe7;" horiz-adv-x="1036" d="M61 551q0 248 173.5 422t416.5 174q90 0 179.5 -23.5t132.5 -46.5l43 -24l-45 -375q-66 41 -166 41q-88 0 -146.5 -49t-58.5 -129t60.5 -129.5t150.5 -49.5q100 0 145 33l39 -321l-50 -27q-32 -16 -124 -44t-176 -28q-238 0 -406 168t-168 408zM340 -446l543 -21v334 h-359z" />
<glyph unicode="&#xe8;" horiz-adv-x="1390" d="M61 547q0 295 184.5 446.5t475.5 151.5q289 0 464 -152.5t175 -445.5l-6 -92h-779q0 -74 67 -107t214 -33q172 0 361 72l51 -307q-2 0 -44 -16.5t-80 -28.5t-95.5 -27.5t-124 -24t-136.5 -8.5q-338 0 -532.5 145.5t-194.5 426.5zM352 1475l318 211l268 -338l-186 -127z M582 657h323q0 76 -45 120t-117 44q-74 0 -117.5 -44t-43.5 -120z" />
<glyph unicode="&#xe9;" horiz-adv-x="1390" d="M61 547q0 295 184.5 446.5t475.5 151.5q289 0 464 -152.5t175 -445.5l-6 -92h-779q0 -74 67 -107t214 -33q172 0 361 72l51 -307q-2 0 -44 -16.5t-80 -28.5t-95.5 -27.5t-124 -24t-136.5 -8.5q-338 0 -532.5 145.5t-194.5 426.5zM532 1348l269 338l317 -211l-399 -254z M582 657h323q0 76 -45 120t-117 44q-74 0 -117.5 -44t-43.5 -120z" />
<glyph unicode="&#xea;" horiz-adv-x="1390" d="M61 547q0 295 184.5 446.5t475.5 151.5q289 0 464 -152.5t175 -445.5l-6 -92h-779q0 -74 67 -107t214 -33q172 0 361 72l51 -307q-2 0 -44 -16.5t-80 -28.5t-95.5 -27.5t-124 -24t-136.5 -8.5q-338 0 -532.5 145.5t-194.5 426.5zM362 1450l390 195l362 -195l-35 -229 l-327 106l-332 -106zM582 657h323q0 76 -45 120t-117 44q-74 0 -117.5 -44t-43.5 -120z" />
<glyph unicode="&#xeb;" horiz-adv-x="1390" d="M61 547q0 295 184.5 446.5t475.5 151.5q289 0 464 -152.5t175 -445.5l-6 -92h-779q0 -74 67 -107t214 -33q172 0 361 72l51 -307q-2 0 -44 -16.5t-80 -28.5t-95.5 -27.5t-124 -24t-136.5 -8.5q-338 0 -532.5 145.5t-194.5 426.5zM246 1233v313l420 45v-358h-420zM582 657 h323q0 76 -45 120t-117 44q-74 0 -117.5 -44t-43.5 -120zM778 1233v313l420 45v-358h-420z" />
<glyph unicode="&#xec;" d="M-20 1475l317 211l268 -338l-186 -127zM123 0v1120h563v-1120h-563z" />
<glyph unicode="&#xed;" d="M123 0v1120h563v-1120h-563zM225 1348l269 338l317 -211l-399 -254z" />
<glyph unicode="&#xee;" d="M25 1450l389 195l362 -195l-35 -229l-327 106l-332 -106zM123 0v1120h563v-1120h-563z" />
<glyph unicode="&#xef;" d="M-82 1233v313l420 45v-358h-420zM123 0v1120h563v-1120h-563zM451 1233v313l419 45v-358h-419z" />
<glyph unicode="&#xf0;" horiz-adv-x="1589" d="M61 606q0 203 131.5 359.5t329.5 156.5q35 0 73 -6t60 -10l21 -6l2 12l-494 434l695 82l387 -436q262 -266 262 -561q0 -201 -106.5 -352.5t-272.5 -226.5t-363 -75q-193 0 -355.5 71t-266 216t-103.5 342zM645 594q0 -80 56.5 -131t136.5 -51q82 0 136 54t54 136 q0 76 -54 134.5t-132 58.5q-82 0 -139.5 -58.5t-57.5 -142.5z" />
<glyph unicode="&#xf1;" horiz-adv-x="1550" d="M123 0v1120l504 21l-21 -174h21q170 178 372 178q233 0 330.5 -122t97.5 -443v-580h-514v580q0 143 -127 143q-84 0 -165 -21v-702h-498zM406 1399q4 6 11 18.5t31.5 41t52 51t68.5 41t84 18.5q49 0 127 -36t125 -36q45 0 90 18.5t70 36.5l22 19l64 -144q-4 -6 -10 -17 t-27.5 -41t-46.5 -51.5t-65.5 -39.5t-83.5 -18q-55 0 -148.5 36.5t-132.5 36.5q-43 0 -88 -18.5t-70 -36.5l-22 -18z" />
<glyph unicode="&#xf2;" horiz-adv-x="1441" d="M61 547q0 291 183.5 444.5t476.5 153.5t476 -153.5t183 -444.5q0 -274 -189.5 -423t-470 -149t-470 149t-189.5 423zM328 1475l317 211l268 -338l-186 -127zM631 555q0 -72 43 -113t106.5 -41t106.5 41t43 113q0 76 -41 120t-108.5 44t-108.5 -44t-41 -120z" />
<glyph unicode="&#xf3;" horiz-adv-x="1441" d="M61 547q0 291 183.5 444.5t476.5 153.5t476 -153.5t183 -444.5q0 -274 -189.5 -423t-470 -149t-470 149t-189.5 423zM594 1348l268 338l318 -211l-400 -254zM631 555q0 -72 43 -113t106.5 -41t106.5 41t43 113q0 76 -41 120t-108.5 44t-108.5 -44t-41 -120z" />
<glyph unicode="&#xf4;" horiz-adv-x="1441" d="M61 547q0 291 183.5 444.5t476.5 153.5t476 -153.5t183 -444.5q0 -274 -189.5 -423t-470 -149t-470 149t-189.5 423zM371 1450l389 195l362 -195l-35 -229l-327 106l-332 -106zM631 555q0 -72 43 -113t106.5 -41t106.5 41t43 113q0 76 -41 120t-108.5 44t-108.5 -44 t-41 -120z" />
<glyph unicode="&#xf5;" horiz-adv-x="1441" d="M61 547q0 291 183.5 444.5t476.5 153.5t476 -153.5t183 -444.5q0 -274 -189.5 -423t-470 -149t-470 149t-189.5 423zM395 1399q4 6 11.5 18.5t32 41t52 51t68.5 41t84 18.5q49 0 127 -36t125 -36q45 0 90 18.5t68 36.5l24 19l64 -144q-4 -6 -10.5 -17t-28 -41t-46 -51.5 t-65.5 -39.5t-84 -18q-55 0 -148 36.5t-132 36.5q-43 0 -88 -18.5t-68 -36.5l-25 -18zM631 555q0 -72 43 -113t106.5 -41t106.5 41t43 113q0 76 -41 120t-108.5 44t-108.5 -44t-41 -120z" />
<glyph unicode="&#xf6;" horiz-adv-x="1441" d="M61 547q0 291 183.5 444.5t476.5 153.5t476 -153.5t183 -444.5q0 -274 -189.5 -423t-470 -149t-470 149t-189.5 423zM266 1233v313l420 45v-358h-420zM631 555q0 -72 43 -113t106.5 -41t106.5 41t43 113q0 76 -41 120t-108.5 44t-108.5 -44t-41 -120zM799 1233v313 l420 45v-358h-420z" />
<glyph unicode="&#xf7;" horiz-adv-x="604" d="M123 571v416l358 45v-461h-358z" />
<glyph unicode="&#xf8;" horiz-adv-x="1441" d="M61 547q0 291 183.5 444.5t476.5 153.5q78 0 184 -19l64 107l315 -94l-88 -148q184 -158 184 -444q0 -274 -189.5 -423t-469.5 -149q-53 0 -98 7l-68 -113l-315 94l69 117q-248 156 -248 467zM631 555q0 -72 43 -113t106.5 -41t106.5 41t43 113q0 76 -41 120t-108.5 44 t-108.5 -44t-41 -120z" />
<glyph unicode="&#xf9;" horiz-adv-x="1529" d="M102 541v559l514 41v-600q0 -143 127 -144q84 0 166 21l-2 682l500 41v-1141l-504 -20l21 174h-21q-170 -178 -373 -179q-233 0 -330.5 122t-97.5 444zM389 1475l318 211l268 -338l-187 -127z" />
<glyph unicode="&#xfa;" horiz-adv-x="1529" d="M102 541v559l514 41v-600q0 -143 127 -144q84 0 166 21l-2 682l500 41v-1141l-504 -20l21 174h-21q-170 -178 -373 -179q-233 0 -330.5 122t-97.5 444zM594 1348l268 338l318 -211l-400 -254z" />
<glyph unicode="&#xfb;" horiz-adv-x="1529" d="M102 541v559l514 41v-600q0 -143 127 -144q84 0 166 21l-2 682l500 41v-1141l-504 -20l21 174h-21q-170 -178 -373 -179q-233 0 -330.5 122t-97.5 444zM375 1450l389 195l362 -195l-34 -229l-328 106l-332 -106z" />
<glyph unicode="&#xfc;" horiz-adv-x="1529" d="M102 541v559l514 41v-600q0 -143 127 -144q84 0 166 21l-2 682l500 41v-1141l-504 -20l21 174h-21q-170 -178 -373 -179q-233 0 -330.5 122t-97.5 444zM287 1233v313l420 45v-358h-420zM819 1233v313l420 45v-358h-420z" />
<glyph unicode="&#xfd;" horiz-adv-x="1449" d="M0 1102l561 41l178 -678h15l151 700l545 -41l-729 -1581l-520 41l317 484zM594 1348l268 338l318 -211l-400 -254z" />
<glyph unicode="&#xfe;" horiz-adv-x="1497" d="M123 -457v2095l545 41l-62 -712h21q139 178 340 178q203 0 336 -151.5t133 -420.5q0 -279 -134.5 -438.5t-334.5 -159.5q-162 0 -283 150l-16 22h-21l21 -563zM600 569q0 -76 45 -119.5t119 -43.5t119 44t45 119q0 72 -46 113t-118 41t-118 -41t-46 -113z" />
<glyph unicode="&#xff;" horiz-adv-x="1449" d="M0 1102l561 41l178 -678h15l151 700l545 -41l-729 -1581l-520 41l317 484zM248 1233v313l420 45v-358h-420zM780 1233v313l420 45v-358h-420z" />
<glyph unicode="&#x152;" horiz-adv-x="2383" d="M61 758q0 336 238 574.5t573 238.5q217 0 404 -88q-4 66 -12 65l1042 43v-444l-475 -43v-150l373 45v-362l-373 -43v-154l491 45v-489l-1058 -43q4 0 10 115q-190 -96 -424 -97q-328 0 -558.5 230.5t-230.5 556.5zM674 772q0 -125 92 -214t223 -89q168 0 297 100 q2 123 2 375v29q-158 100 -307 100q-127 0 -217 -88t-90 -213z" />
<glyph unicode="&#x153;" horiz-adv-x="2191" d="M61 547q0 291 183.5 444.5t476.5 153.5q217 0 389 -113l10 -8q18 14 54 33.5t140.5 53.5t207.5 34q289 0 464 -152.5t175 -445.5l-7 -92h-778q0 -74 66.5 -107t214.5 -33q172 0 360 72l51 -307q-2 0 -44 -16.5t-79.5 -28.5t-95 -27.5t-124 -24t-136.5 -8.5 q-141 0 -258 31t-164 60l-45 30q-16 -14 -47 -33.5t-135 -53.5t-219 -34q-281 0 -470.5 149t-189.5 423zM631 555q0 -72 43 -113t106.5 -41t106.5 41t43 113q0 76 -41 120t-108.5 44t-108.5 -44t-41 -120zM1382 657h324q0 76 -45 120t-117 44q-74 0 -118 -44t-44 -120z" />
<glyph unicode="&#x178;" horiz-adv-x="1611" d="M2 1481l627 65l168 -416h14l258 551l524 -129q25 -6 17 -6q-16 0 -149 -226l-257 -452l-123 -225v-639l-592 -45v684q0 39 -229 438.5t-258 399.5zM342 1642v314l420 45v-359h-420zM874 1745v211l420 45v-256h-420z" />
<glyph unicode="&#x2c6;" horiz-adv-x="1228" d="M229 1395l389 194l363 -194l-35 -230l-328 107l-331 -107z" />
<glyph unicode="&#x2dc;" horiz-adv-x="1146" d="M201 1399q4 6 11 18.5t31.5 41t52.5 51t69 41t84 18.5q49 0 126.5 -36t124.5 -36q45 0 90.5 18.5t69.5 36.5l23 19l63 -144q-4 -6 -10 -17t-27.5 -41t-46 -51.5t-65.5 -39.5t-84 -18q-55 0 -148.5 36.5t-132.5 36.5q-43 0 -88 -18.5t-70 -36.5l-22 -18z" />
<glyph unicode="&#x2000;" horiz-adv-x="1047" />
<glyph unicode="&#x2001;" horiz-adv-x="2095" />
<glyph unicode="&#x2002;" horiz-adv-x="1047" />
<glyph unicode="&#x2003;" horiz-adv-x="2095" />
<glyph unicode="&#x2004;" horiz-adv-x="698" />
<glyph unicode="&#x2005;" horiz-adv-x="523" />
<glyph unicode="&#x2006;" horiz-adv-x="349" />
<glyph unicode="&#x2007;" horiz-adv-x="349" />
<glyph unicode="&#x2008;" horiz-adv-x="261" />
<glyph unicode="&#x2009;" horiz-adv-x="419" />
<glyph unicode="&#x200a;" horiz-adv-x="116" />
<glyph unicode="&#x2010;" horiz-adv-x="890" d="M123 602v385l645 45v-430h-645z" />
<glyph unicode="&#x2011;" horiz-adv-x="890" d="M123 602v385l645 45v-430h-645z" />
<glyph unicode="&#x2012;" horiz-adv-x="890" d="M123 602v385l645 45v-430h-645z" />
<glyph unicode="&#x2013;" horiz-adv-x="1105" d="M123 602v385l860 43v-428h-860z" />
<glyph unicode="&#x2014;" horiz-adv-x="1505" d="M123 602v385l1259 43v-428h-1259z" />
<glyph unicode="&#x2018;" horiz-adv-x="765" d="M113 862l225 727l358 -41l-20 -641z" />
<glyph unicode="&#x2019;" horiz-adv-x="765" d="M113 903l20 641l563 45l-225 -727z" />
<glyph unicode="&#x201a;" horiz-adv-x="765" d="M113 -121l20 641l563 45l-225 -727z" />
<glyph unicode="&#x201c;" horiz-adv-x="1228" d="M113 862l225 727l276 -41l-20 -641zM666 883l225 706l215 -41l-21 -620z" />
<glyph unicode="&#x201d;" horiz-adv-x="1228" d="M123 903l20 621l420 45l-225 -707zM614 903l21 641l481 45l-225 -727z" />
<glyph unicode="&#x201e;" horiz-adv-x="1228" d="M123 -121l20 621l420 45l-225 -707zM614 -121l21 641l481 45l-225 -727z" />
<glyph unicode="&#x2022;" d="M123 530v478l563 45v-523h-563z" />
<glyph unicode="&#x2026;" horiz-adv-x="2426" d="M123 4v477l563 45v-522h-563zM932 4v477l563 45v-522h-563zM1741 4v477l563 45v-522h-563z" />
<glyph unicode="&#x202f;" horiz-adv-x="419" />
<glyph unicode="&#x2039;" horiz-adv-x="792" d="M123 715l317 383l230 -35l-148 -348l148 -353l-230 -57z" />
<glyph unicode="&#x203a;" horiz-adv-x="792" d="M123 362l147 353l-147 348l229 35l318 -383l-318 -410z" />
<glyph unicode="&#x205f;" horiz-adv-x="523" />
<glyph unicode="&#x20ac;" horiz-adv-x="1325" d="M31 623l20 282l117 4q45 285 230.5 473.5t428.5 188.5q117 0 226.5 -33t158.5 -65l52 -33l-25 -379q-125 33 -262 33q-68 0 -124 -43t-87 -117l381 16l-21 -327h-364q31 -80 90 -127t131 -47q61 0 120.5 10t88.5 20l31 10l20 -380q-6 -6 -19.5 -15.5t-57.5 -33t-91 -42 t-119.5 -33t-146.5 -14.5q-242 0 -423 185.5t-222 466.5h-133z" />
<glyph unicode="&#x2122;" horiz-adv-x="1843" d="M31 1294v252l592 23v-230l-156 -16v-553h-281v533zM621 768q0 74 59 438.5t74 364.5l325 -25l113 -401h8l111 401l295 25l135 -789l-281 -24l-39 444h-6l-137 -420l-172 -24q-121 412 -123 444h-10l-43 -420q-291 -25 -307 -24q-2 0 -2 10z" />
<glyph unicode="&#x25fc;" horiz-adv-x="1160" d="M0 0v1160h1160v-1160h-1160z" />
<glyph unicode="&#xfb01;" horiz-adv-x="1820" d="M31 727l20 352l111 21v80q0 276 97 379.5t331 103.5q106 0 209.5 -18.5t154.5 -38.5l50 -19l6 -325q-82 20 -176 20q-127 0 -127 -141v-41h268v-393h-268v-707l-545 -41v768h-131zM1153 0v1120h545v-1120h-545zM1153 1225v354l545 45v-399h-545z" />
<glyph unicode="&#xfb02;" horiz-adv-x="1820" d="M31 727l20 352l111 21v80q0 276 97 379.5t331 103.5q106 0 209.5 -18.5t154.5 -38.5l50 -19l6 -325q-82 20 -176 20q-127 0 -127 -141v-41h268v-393h-268v-707l-545 -41v768h-131zM1153 -41v1679l545 41v-1679z" />
<glyph unicode="&#xfb03;" horiz-adv-x="2932" d="M61 727l21 352l111 21v80q0 276 97 379.5t331 103.5q106 0 209.5 -18.5t152.5 -38.5l51 -19l6 -325q-82 20 -176 20q-127 0 -127 -141v-41h269v-393h-269v-707l-544 -41v768h-132zM1132 727l21 352l111 21v80q0 276 97 379.5t331 103.5q106 0 209.5 -18.5t152.5 -38.5 l51 -19l6 -325q-82 20 -176 20q-127 0 -127 -141v-41h269v-393h-269v-707l-544 -41v768h-132zM2265 0v1120h545v-1120h-545zM2265 1225v354l545 45v-399h-545z" />
<glyph unicode="&#xfb04;" horiz-adv-x="2932" d="M61 727l21 352l111 21v80q0 276 97 379.5t331 103.5q106 0 209.5 -18.5t152.5 -38.5l51 -19l6 -325q-82 20 -176 20q-127 0 -127 -141v-41h269v-393h-269v-707l-544 -41v768h-132zM1132 727l21 352l111 21v80q0 276 97 379.5t331 103.5q106 0 209.5 -18.5t152.5 -38.5 l51 -19l6 -325q-82 20 -176 20q-127 0 -127 -141v-41h269v-393h-269v-707l-544 -41v768h-132zM2265 -41v1679l545 41v-1679z" />
</font>
</defs>
</svg>
